<?xml version="1.0" standalone="no"?>
<!DOCTYPE svg PUBLIC "-//W3C//DTD SVG 1.1//EN" "http://www.w3.org/Graphics/SVG/1.1/DTD/svg11.dtd" >
<svg xmlns="http://www.w3.org/2000/svg">
<metadata></metadata>
<defs>
<font id="daxmedium" horiz-adv-x="1118" >
<font-face units-per-em="2048" ascent="1638" descent="-410" />
<missing-glyph horiz-adv-x="557" />
<glyph horiz-adv-x="2048" />
<glyph horiz-adv-x="2048" />
<glyph unicode="&#xd;" horiz-adv-x="557" />
<glyph unicode=" "  horiz-adv-x="557" />
<glyph unicode="&#x09;" horiz-adv-x="557" />
<glyph unicode="&#xa0;" horiz-adv-x="557" />
<glyph unicode="!" horiz-adv-x="636" d="M190 136q0 62 43 106.5t105.5 44.5t106.5 -44.5t44 -106.5t-44 -106t-106 -44t-105.5 44t-43.5 106zM190 1409h297l-53 -926h-190z" />
<glyph unicode="&#x22;" horiz-adv-x="845" d="M129 1374q41 55 111.5 55t113.5 -55l-49 -543h-129zM492 1376q43 53 112 54q70 -1 113 -54l-49 -545h-129z" />
<glyph unicode="#" d="M66 455v123h215l51 288h-195v123h215l74 420h141l-73 -420h223l71 420h142l-74 -418h197v-125h-217l-54 -288h197v-123h-217l-78 -455h-141l78 455h-220l-82 -455h-139l78 455h-192zM422 578h219l53 288h-221z" />
<glyph unicode="$" d="M156 61l61 172q102 -63 220 -63t180.5 61.5t62.5 154.5t-52.5 148.5t-172.5 104.5q-287 115 -287 377q0 156 95 269.5t257 133.5l-20 242h145l-20 -238q158 -8 260 -73l-54 -148q-102 59 -204.5 59.5t-159.5 -57t-57 -150.5t54 -144.5t165 -98.5q309 -133 309 -401 q0 -164 -99.5 -278t-263.5 -140l23 -258h-152l21 252q-203 6 -311 75z" />
<glyph unicode="%" horiz-adv-x="1783" d="M129 947q0 482 293 483q295 -1 295 -483t-294 -482t-294 482zM293 955q0 -368 129 -367q131 -1 131 367t-130 368t-130 -368zM588 14l479 1411l125 -32l-479 -1411zM1067 463q0 483 294 483t294 -483t-294 -483t-294 483zM1231 470q0 -368 130 -368t130 368t-130 368 t-130 -368z" />
<glyph unicode="&#x26;" horiz-adv-x="1298" d="M96 389q0 150 94.5 252t245.5 150v4q-250 84 -250 305q0 145 112 237.5t301.5 92.5t313.5 -78l-73 -146q-86 51 -195 51q-209 0 -209 -180q0 -88 67.5 -140t170.5 -52q227 0 532 159l74 -153q-111 -51 -225 -80v-750q-129 -82 -397.5 -81.5t-415 108t-146.5 301.5z M365 403q0 -264 290 -264q101 0 156 25v600q-240 -55 -343.5 -134t-102.5 -227z" />
<glyph unicode="'" horiz-adv-x="485" d="M129 1374q41 55 113 56q71 -1 114 -56l-51 -543h-127z" />
<glyph unicode="(" horiz-adv-x="780" d="M125 586q0 264 113.5 514t363.5 534l121 -69q-334 -463 -334 -977t334 -985l-119 -68q-252 283 -365.5 535t-113.5 516z" />
<glyph unicode=")" horiz-adv-x="780" d="M57 -397q334 475 334 984t-334 978l119 69q252 -283 365.5 -533.5t113.5 -514.5t-113.5 -516t-365.5 -535z" />
<glyph unicode="*" horiz-adv-x="905" d="M100 1367q0 42 30 71.5t71 29.5t69.5 -29.5t28.5 -71.5t-29.5 -70.5t-70.5 -28.5t-70 28.5t-29 70.5zM186 1074q0 42 30 72t71 30t69.5 -30t28.5 -72t-28.5 -71.5t-69.5 -29.5t-71 29.5t-30 71.5zM354 1549q0 42 29 72t70 30t69.5 -30t28.5 -72t-28.5 -70.5t-69.5 -28.5 t-70 28.5t-29 70.5zM371 1286q0 35 23.5 58.5t58.5 23.5t58.5 -23.5t23.5 -59.5t-24 -59.5t-58 -23.5q-35 0 -58.5 24.5t-23.5 59.5zM516 1074q0 42 29.5 71t70.5 29t70 -29t29 -72t-30 -71.5t-71 -28.5t-69.5 29.5t-28.5 71.5zM606 1366q0 43 29 72.5t70 29.5t70.5 -29.5 t29.5 -72.5t-30 -71.5t-70 -28.5q-41 0 -70 28.5t-29 71.5z" />
<glyph unicode="+" d="M156 600v164h321v340h164v-340h322v-164h-322v-342h-164v342h-321z" />
<glyph unicode="," horiz-adv-x="577" d="M12 -346l183 549q57 72 152.5 72t109.5 -72l-297 -549h-148z" />
<glyph unicode="-" horiz-adv-x="716" d="M109 594v190h499v-190h-499z" />
<glyph unicode="." horiz-adv-x="542" d="M121 138q0 62 44 106.5t106 44.5t106.5 -44.5t44.5 -106.5t-44 -106t-106.5 -44t-106.5 44t-44 106z" />
<glyph unicode="/" horiz-adv-x="1171" d="M25 -393l966 2025l156 -76l-967 -2025z" />
<glyph unicode="0" d="M104 705q0 293 91 481q119 244 364 244q246 0 365 -244q90 -188 90 -481t-90 -482q-119 -244 -365 -243q-246 0 -364 243q-90 188 -91 482zM344 710q0 -564 215 -565q215 1 215 565t-215 564t-215 -564z" />
<glyph unicode="1" d="M162 1194q348 45 452 215h179v-1409h-254v1128q-119 -66 -346 -84z" />
<glyph unicode="2" d="M72 0l487 700q127 182 127 318q0 229 -258 229q-143 0 -254 -57l-61 160q156 80 379 80t341 -110.5t117.5 -272t-182.5 -402.5l-332 -438h527v-207h-891z" />
<glyph unicode="3" d="M78 57l67 168q111 -59 257.5 -59t222 66.5t75.5 185.5q0 272 -374 262v135q156 14 244.5 82t88.5 172q0 182 -217 182q-158 0 -264 -55l-63 156q147 78 351.5 78t324.5 -89.5t120 -242.5q0 -117 -88 -205q-63 -66 -155 -100l2 -5q299 -91 299 -370q0 -197 -141.5 -317.5 t-376 -120.5t-373.5 77z" />
<glyph unicode="4" d="M104 299v154l560 956h243v-969h109v-141h-109v-299h-235v299h-568zM268 440h404l2 518q0 105 4 207q-20 -45 -105 -198z" />
<glyph unicode="5" d="M98 57l66 170q115 -63 276 -63q115 0 196 67.5t81 186.5q0 279 -363 278q-82 0 -184 -16l70 729h696v-207h-522l-29 -366q49 4 96 4q250 0 377 -114.5t127 -304t-141.5 -315.5t-375 -126t-370.5 77z" />
<glyph unicode="6" d="M111 518q0 410 280 672q203 188 430 231l64 -164q-362 -111 -492 -434q76 29 166 29q195 0 318 -98q139 -115 139 -320t-120 -329.5t-339 -124.5t-333 148t-113 390zM342 512q0 -367 229 -367q106 0 157.5 84t51.5 205q0 289 -270 289q-80 0 -152 -29q-16 -84 -16 -182z " />
<glyph unicode="7" d="M121 1202v207h932l-185 -436q-260 -616 -344 -973h-307l533 1202h-629z" />
<glyph unicode="8" d="M104 342q0 121 69 210t226 181q-135 82 -194.5 163t-59.5 189q0 152 119 248.5t295 96.5t295 -95.5t119 -247.5q0 -109 -58.5 -187.5t-195.5 -158.5q158 -94 226.5 -186t68.5 -211q0 -164 -127 -264t-325 -100t-327.5 97t-130.5 265zM324 349.5q0 -91.5 67.5 -152 t165.5 -60.5t162.5 59.5t64.5 150.5t-46 156t-185 144q-137 -80 -183 -143t-46 -154.5zM360 1092q0 -84 43 -138.5t162 -128.5q117 70 160 126t43 139t-57.5 139.5t-148.5 56.5t-146.5 -55t-55.5 -139z" />
<glyph unicode="9" d="M102.5 965.5q-0.5 203.5 120.5 329.5t340 126t332 -148t113 -390q0 -410 -281 -672q-201 -186 -430 -231l-64 165q362 106 492 433q-86 -29 -166 -29q-195 0 -317 98q-139 115 -139.5 318.5zM336 975q0 -289 270 -289q76 0 152 31q16 76 16 180q0 369 -229 369 q-106 0 -157.5 -84t-51.5 -207z" />
<glyph unicode=":" horiz-adv-x="542" d="M121 138q0 62 44 106.5t106 44.5t106.5 -44.5t44.5 -106.5t-44 -106t-106.5 -44t-106.5 44t-44 106zM121 775q0 62 44 106.5t106 44.5t106.5 -44.5t44.5 -106.5t-44 -106t-106.5 -44t-106.5 44t-44 106z" />
<glyph unicode=";" horiz-adv-x="577" d="M12 -346l183 549q57 76 153 76q97 0 109 -76l-297 -549h-148zM156 775q0 62 44 106.5t106 44.5t106.5 -44.5t44.5 -106.5t-44 -106t-106.5 -44t-106.5 44t-44 106z" />
<glyph unicode="&#x3c;" d="M156 610v152l807 348v-178l-609 -246l609 -246v-178z" />
<glyph unicode="=" d="M156 401v164h807v-164h-807zM156 797v164h807v-164h-807z" />
<glyph unicode="&#x3e;" d="M156 262v178l608 246l-608 246v178l807 -348v-152z" />
<glyph unicode="?" horiz-adv-x="864" d="M80 1348q137 78 330.5 77.5t310.5 -92.5t117 -234.5t-107 -240.5q-82 -76 -192 -110l-23 -265h-188l-31 340q115 25 196.5 87.5t81.5 152.5q0 188 -219 188q-111 0 -209 -51zM274 136q0 62 43 106.5t105.5 44.5t106.5 -44.5t44 -106.5t-44 -105t-106 -43t-105.5 43 t-43.5 105z" />
<glyph unicode="@" horiz-adv-x="1779" d="M119 461q0 393 273.5 682t660.5 289q270 0 437 -158t167 -413t-119 -472q-137 -256 -346 -256q-139 0 -156 180q-117 -176 -309 -176q-125 0 -188 93.5t-64 230.5q0 193 111 364q125 197 311 197q160 0 233 -172l29 137h125l-78 -360q-45 -209 -45 -267q0 -121 74 -120 q119 0 215 207t96 417.5t-139 346t-365 135.5q-344 0 -578 -269.5t-235 -619.5q0 -303 182.5 -470t481.5 -167q223 0 379.5 76t300.5 227l57 -72q-150 -160 -322.5 -239.5t-416.5 -79.5q-350 0 -561 192.5t-211 536.5zM612 463q0 -94 45 -156.5t125 -62.5q133 0 224 166 q75 139 77 262.5t-49 185.5t-127 62q-135 0 -223 -170q-72 -139 -72 -287z" />
<glyph unicode="A" horiz-adv-x="1226" d="M25 0l467 1409h245l465 -1409h-268l-109 362h-454l-113 -362h-233zM412 514h376l-145 496q-31 104 -37 170h-4q-10 -55 -39 -170z" />
<glyph unicode="B" horiz-adv-x="1189" d="M145 59v1291q145 80 396.5 80t382.5 -100.5t131 -264.5q0 -133 -79 -215t-183 -105v-4q115 -25 202 -112q107 -105 107 -244q0 -203 -150 -307q-137 -98 -397 -98t-410 79zM391 166q66 -27 164 -27q287 0 287 250q0 285 -347 285h-24l-80 -2v-506zM391 801l80 -2 q11 0 22 -1q165 0 236 58q76 60 76 193q0 233 -258 233q-84 0 -156 -25v-456z" />
<glyph unicode="C" horiz-adv-x="993" d="M100 705q0 306 138 505q150 219 405 220q180 0 291 -80l-57 -156q-82 49 -183 49q-168 0 -252 -166q-72 -140 -72 -365v-3q0 -227 76 -369q86 -162 248 -162q100 0 178 49l62 -168q-101 -79 -288 -79h-5q-258 0 -399 208q-142 209 -142 517z" />
<glyph unicode="D" horiz-adv-x="1241" d="M145 59v1291q156 80 385 80q307 0 459 -191.5t152 -525.5t-137 -523q-153 -210 -456 -210h-3q-260 0 -400 79zM403 180q61 -20 138 -20q178 0 257 134t79 425q0 541 -340 541q-80 0 -134 -21v-1059z" />
<glyph unicode="E" horiz-adv-x="923" d="M145 0v1409h686v-174h-425v-426h378v-172h-378v-463h425v-174h-686z" />
<glyph unicode="F" horiz-adv-x="907" d="M145 0v1409h684v-174h-423v-426h376v-172h-376v-637h-261z" />
<glyph unicode="G" horiz-adv-x="1226" d="M100 703.5q0 341.5 171 533.5t450 193q221 0 352 -78l-78 -160q-90 53 -243 53q-387 0 -387 -545q0 -260 94 -400t246 -140q92 0 141 26v463h-203v160h449v-750q-135 -79 -371 -79h-6q-287 0 -451 191t-164 532.5z" />
<glyph unicode="H" horiz-adv-x="1255" d="M145 0v1409h261v-600h444v600h260v-1409h-260v637h-444v-637h-261z" />
<glyph unicode="I" horiz-adv-x="561" d="M150 0v1409h262v-1409h-262z" />
<glyph unicode="J" horiz-adv-x="561" d="M-84 -268q102 23 168 105.5t66 215.5v1356h262v-1333q0 -236 -139.5 -371t-356.5 -156v183z" />
<glyph unicode="K" horiz-adv-x="1136" d="M150 0v1409h260v-643h4l403 643h266l-440 -651l465 -758h-291l-403 713h-4v-713h-260z" />
<glyph unicode="L" horiz-adv-x="864" d="M150 0v1409h262v-1235h389v-174h-651z" />
<glyph unicode="M" horiz-adv-x="1617" d="M94 0l158 1409h262l252 -903q23 -84 37 -158h4q6 33 37 158l260 903h262l158 -1409h-246q-2 33 -90 932q-6 66 -6 135v35h-4q-8 -39 -41 -170l-269 -932h-147q-12 39 -266 934q-23 82 -41 168h-4v-31q0 -70 -7 -137l-90 -934h-219z" />
<glyph unicode="N" horiz-adv-x="1331" d="M145 0v1409h246l504 -856q43 -74 76 -143h4q-6 74 -6 149v850h217v-1409h-209l-535 909q-43 74 -82 158h-4q8 -86 9 -164v-903h-220z" />
<glyph unicode="O" horiz-adv-x="1259" d="M100 705q0 324 123 512q139 213 408 213q268 0 405 -213q123 -188 123 -512t-123 -512q-137 -213 -406 -213t-407 213q-123 188 -123 512zM365 714.5q0 -542.5 265 -542.5t265 543q0 542 -263 542h-1q-266 0 -266 -542.5z" />
<glyph unicode="P" horiz-adv-x="1124" d="M145 0v1350q154 80 402 80t375 -120t127 -316t-121 -314q-137 -129 -393 -129q-39 0 -80 2l-56 4v-557h-254zM399 711l54 -4q29 -2 55 -2h2q289 0 289 287q0 288 -269 288q-78 0 -131 -23v-546z" />
<glyph unicode="Q" horiz-adv-x="1259" d="M100 707q0 322 123 510q139 213 408.5 213t406.5 -213q121 -188 121 -510q0 -467 -258 -650l234 -288l-191 -170l-199 399q-59 -14 -114 -14q-270 0 -408 211q-123 190 -123 512zM365 715.5q0 -541.5 266 -541.5t266 542q0 541 -265 541h-1q-266 0 -266 -541.5z" />
<glyph unicode="R" horiz-adv-x="1159" d="M150 0v1350q156 80 399.5 80t374.5 -113t131 -316q0 -158 -104.5 -260t-272.5 -112v-4l420 -625h-289l-399 639h-4v-639h-256zM406 702q27 -10 96 -10q299 0 299 297q0 150 -62.5 220.5t-203.5 70.5q-76 0 -129 -25v-553z" />
<glyph unicode="S" horiz-adv-x="970" d="M76 59l63 183q98 -66 219 -66t181.5 59.5t60.5 148.5t-50 143.5t-169 103.5q-291 121 -291 385q0 174 116 294t309.5 120t305.5 -80l-57 -160q-102 63 -207.5 63t-159 -55t-53.5 -144t53.5 -140.5t159.5 -96.5q317 -133 317 -407q0 -188 -126.5 -309t-337.5 -121t-334 79 z" />
<glyph unicode="T" horiz-adv-x="911" d="M63 1235v174h787v-174h-264v-1235h-260v1235h-263z" />
<glyph unicode="U" horiz-adv-x="1220" d="M145 410v999h261v-997q0 -109 61 -171.5t154 -62.5q92 0 152.5 61.5t60.5 172.5v997h241v-999q0 -193 -129 -313t-336 -120t-336 120t-129 313z" />
<glyph unicode="V" horiz-adv-x="1124" d="M31 1409h276l230 -905q18 -76 36 -178h5q8 49 36 178l234 905h248l-416 -1409h-225z" />
<glyph unicode="W" horiz-adv-x="1697" d="M59 1409h260l175 -922q14 -74 24 -159h4q4 41 29 159l213 922h192l211 -922q16 -70 27 -159h4q4 43 23 159l182 922h239l-323 -1409h-229l-211 862q-18 74 -27 154h-4q-4 -35 -27 -154l-209 -862h-229z" />
<glyph unicode="X" horiz-adv-x="1101" d="M31 0l381 721l-342 688h280l205 -477h4l232 477h247l-350 -657l383 -752h-291l-235 520h-4l-244 -520h-266z" />
<glyph unicode="Y" horiz-adv-x="1054" d="M18 1409h277l242 -584h4l252 584h247l-383 -801v-608h-260v608z" />
<glyph unicode="Z" horiz-adv-x="925" d="M43 0l479 1235h-440v174h764l-467 -1235h479v-174h-815z" />
<glyph unicode="[" horiz-adv-x="724" d="M145 -440v2048h492v-144h-270v-1759h270v-145h-492z" />
<glyph unicode="\" horiz-adv-x="1179" d="M25 1554l157 78l973 -2023l-158 -78z" />
<glyph unicode="]" horiz-adv-x="724" d="M88 -295h270v1759h-270v144h492v-2048h-492v145z" />
<glyph unicode="^" horiz-adv-x="1218" d="M180 954l314 412q45 59 115.5 59t115.5 -59l313 -412l-96 -94l-332 375l-334 -375z" />
<glyph unicode="_" d="M-20 -272h1159v-156h-1159v156z" />
<glyph unicode="`" horiz-adv-x="454" d="M-14 1503q18 43 100 43t145 -37l142 -288h-137z" />
<glyph unicode="a" horiz-adv-x="1062" d="M80 314q0 202 182 302q143 78 434 107v59q0 182 -219 183q-137 0 -276 -68l-58 143q172 84 379 84q408 0 408 -381v-684q-148 -79 -394 -79h-6q-450 0 -450 334zM315 324q0 -205 232 -205q88 0 149 31v454q-197 -25 -278 -76q-102 -63 -103 -204z" />
<glyph unicode="b" horiz-adv-x="1124" d="M133 59v1549h248v-535q98 45 217 45q195 0 314.5 -147t119.5 -410.5t-139 -422t-388 -158.5t-372 79zM381 156q51 -23 127 -23q276 0 276 420t-254 420q-90 0 -149 -33v-784z" />
<glyph unicode="c" horiz-adv-x="851" d="M92 554q0 267 124 418.5t302 151.5t268 -75l-53 -142q-59 47 -147 47q-242 0 -242 -395q0 -186 62.5 -292.5t164 -106.5t160.5 49l57 -154q-83 -76 -266 -76q0 1 -2 1q-184 0 -306 153.5t-122 420.5z" />
<glyph unicode="d" horiz-adv-x="1124" d="M92 539.5q0 265.5 133 420.5q132 154 347 154h3q96 0 166 -20v514h250v-1549q-142 -80 -383 -80q-2 1 -3 1q-243 0 -378 147t-135 412.5zM340 556q0 -417 272 -417q90 0 129 25v794q-49 14 -110 15q-291 0 -291 -417z" />
<glyph unicode="e" horiz-adv-x="1099" d="M92 551q0 272 126 422.5t346 150.5t335 -144q108 -135 108 -386q0 -17 -1 -35l-676 -98q31 -307 301 -307q160 0 278 61l60 -158q-140 -78 -369 -78q-1 1 -3 1q-231 0 -368 149.5t-137 421.5zM315 588l457 69q0 313 -217 314q-115 0 -179 -96q-61 -90 -61 -265v-22z" />
<glyph unicode="f" horiz-adv-x="679" d="M74 944v160h123v133q0 186 115 285q100 88 267 88q23 0 48 -2v-160q-180 -4 -181 -186v-158h181v-160h-181v-944h-249v944h-123z" />
<glyph unicode="g" d="M92 542.5q0 261.5 137 421.5q137 161 384 161q1 0 1 -1q249 0 371 -80v-1060q0 -217 -121 -332t-349.5 -115t-358.5 78l69 164q119 -66 264 -66q254 0 254 248v70q-72 -41 -206 -41q-201 0 -323 145.5t-122 407zM340 541q0 -406 262 -406q82 0 141 35v782q-43 25 -129 25 q-274 0 -274 -436z" />
<glyph unicode="h" horiz-adv-x="1136" d="M133 0v1608h250v-551q121 59 246 59q195 0 293 -102q82 -88 82 -232v-782h-250v776q0 186 -195 187q-100 0 -176 -45v-918h-250z" />
<glyph unicode="i" horiz-adv-x="532" d="M129 1417q0 51 40 88t97 37t97 -36t40 -88t-39.5 -88t-97.5 -36q-57 0 -97 36t-40 87zM141 0v1104h250v-1104h-250z" />
<glyph unicode="j" horiz-adv-x="536" d="M-47 -293q193 66 192 361v1036h250v-1010q0 -246 -126 -392t-316 -161v166zM133 1417q0 51 40 88t97 37t97.5 -37t40.5 -88t-40 -87t-98 -36q-57 0 -97 36t-40 87z" />
<glyph unicode="k" horiz-adv-x="1046" d="M141 0v1608h248v-1004h4l350 500h254l-381 -506l426 -598h-280l-369 563h-4v-563h-248z" />
<glyph unicode="l" horiz-adv-x="536" d="M143 0v1608h250v-1608h-250z" />
<glyph unicode="m" horiz-adv-x="1757" d="M133 0v1044q166 80 406.5 80t351.5 -120q130 120 350 120h4q184 0 281.5 -98t97.5 -240v-786h-250v784q0 180 -186 181q-109 0 -184 -76v-889h-250v791q0 176 -207 176q-90 0 -164 -31v-936h-250z" />
<glyph unicode="n" horiz-adv-x="1136" d="M133 0v1044q170 80 416.5 80t357.5 -102q96 -86 97 -236v-786h-250v782q0 184 -199 185q-94 0 -172 -31v-936h-250z" />
<glyph unicode="o" horiz-adv-x="1101" d="M92 552q0 257 118 415t341 158l1 -1q224 0 341 -157.5t117 -414.5t-118 -415q-117 -157 -338 -157h-3q-223 0 -341 157.5t-118 414.5zM340 558.5q0 -408.5 211 -408.5t211 408.5t-211 408.5t-211 -408.5z" />
<glyph unicode="p" horiz-adv-x="1124" d="M133 -440v1484q150 80 387.5 80t374.5 -147.5t137 -413.5t-133 -421.5t-352 -155.5q-109 0 -166 22v-448h-248zM381 154q43 -18 111 -19q292 0 292 420t-274 420q-74 0 -129 -23v-798z" />
<glyph unicode="q" horiz-adv-x="1124" d="M92 536q0 260 133 424t402 164q227 0 364 -80v-1484h-248v469q-86 -45 -211 -45q-199 0 -319.5 146t-120.5 406zM340 541q0 -406 260 -406q84 0 143 35v784q-45 23 -129 23q-274 0 -274 -436z" />
<glyph unicode="r" horiz-adv-x="696" d="M133 0v1044q164 79 463 79q34 0 70 -1l-50 -182q-55 18 -120.5 18t-112.5 -26v-932h-250z" />
<glyph unicode="s" horiz-adv-x="849" d="M66 61l65 160q80 -63 207 -63q76 0 123 44t47 112.5t-37 108.5t-125 73q-252 96 -252 309q0 135 97.5 227t259 92t280.5 -77l-61 -146q-76 61 -163 61q-1 0 -2 1q-85 0 -127 -42t-42 -104q0 -109 164 -174q264 -107 264 -326q0 -139 -108.5 -237t-290.5 -98t-299 79z" />
<glyph unicode="t" horiz-adv-x="702" d="M74 944v160h123v244l249 69v-313h181v-160h-181v-645q0 -143 121 -143q25 0 60 10v-156q-47 -22 -121 -22h-6q-152 0 -228 86t-75 213v657h-123z" />
<glyph unicode="u" d="M133 350v754h250v-768q0 -186 186 -186q102 0 166 36v918h250v-1038q-166 -88 -424 -89q-428 0 -428 373z" />
<glyph unicode="v" horiz-adv-x="1034" d="M43 1104h266l195 -713q23 -80 26 -151h5q10 59 28 151l199 713h233l-354 -1104h-238z" />
<glyph unicode="w" horiz-adv-x="1611" d="M57 1104h252l162 -715q18 -78 21 -145h4q10 55 28 145l195 715h209l186 -715q16 -66 27 -145h4q2 39 22 147l170 713h222l-308 -1104h-225l-190 692q-18 68 -23 142h-4q-6 -51 -25 -142l-194 -692h-225z" />
<glyph unicode="x" horiz-adv-x="1015" d="M33 0l342 571l-307 533h262l186 -361h4l195 361h235l-313 -516l346 -588h-274l-207 401h-4l-211 -401h-254z" />
<glyph unicode="y" horiz-adv-x="1034" d="M43 1104h266l191 -715q20 -80 22 -158h4q10 59 31 158l205 715h233l-503 -1544h-265l181 440z" />
<glyph unicode="z" horiz-adv-x="876" d="M57 0l420 944h-385v160h696l-405 -944h418v-160h-744z" />
<glyph unicode="{" horiz-adv-x="792" d="M90 612v131q168 6 168 224v303q0 338 432 338v-129q-215 0 -215 -197v-356q0 -209 -182 -246q2 -2 0 -4q182 -37 182 -252v-356q0 -197 215 -197v-131q-432 0 -432 338v307q0 221 -168 227z" />
<glyph unicode="|" horiz-adv-x="489" d="M145 -440v2048h199v-2048h-199z" />
<glyph unicode="}" horiz-adv-x="792" d="M102 -129q217 0 217 197v356q0 215 181 252v4q-180 37 -181 246v356q0 197 -217 197v129q432 0 433 -338v-303q0 -217 167 -224v-131q-168 -6 -167 -227v-307q0 -338 -433 -338v131z" />
<glyph unicode="~" horiz-adv-x="1218" d="M162 694q72 158 219 172q90 10 218 -63.5t200 -65.5q125 16 178 142l80 -154q-47 -143 -226 -166q-84 -10 -213 62.5t-204 64.5q-123 -14 -176 -143z" />
<glyph unicode="&#xa1;" horiz-adv-x="636" d="M190 -440l54 925h190l53 -925h-297zM190 832q0 62 43 105.5t105.5 43.5t106.5 -43.5t44 -105.5t-44 -106t-106 -44t-105.5 44t-43.5 106z" />
<glyph unicode="&#xa2;" d="M176 706q0 206 98 334q92 125 250 152l-20 215h155l-16 -209q141 -8 213 -63l-51 -125q-63 41 -146 41q-242 0 -241 -338q0 -160 62.5 -249t176.5 -89q84 0 148 39l53 -135q-74 -55 -219 -64l18 -213h-157l22 219q-162 27 -254 153t-92 332z" />
<glyph unicode="&#xa3;" d="M121 659v146h158q-39 139 -39 252q0 156 113.5 264.5t317.5 108.5t324 -76l-57 -154q-98 51 -217 51q-244 0 -244 -260q0 -86 29 -186h278v-146h-254q35 -177 -18 -333q-29 -82 -55 -119h557v-207h-881q211 246 211 485q0 82 -27 174h-196z" />
<glyph unicode="&#xa4;" d="M92 322l144 145q-76 104 -76 234t76 235l-144 143l88 88l146 -143q104 76 234 76t235 -76l143 143l88 -88l-143 -143q76 -104 75.5 -233.5t-75.5 -237.5l143 -143l-88 -89l-143 144q-104 -76 -234.5 -76t-234.5 78l-146 -146zM315 701.5q0 -101.5 72 -173t173 -71.5 t172 71.5t71 172.5t-70.5 172t-172 71t-173.5 -70.5t-72 -172z" />
<glyph unicode="&#xa5;" d="M59 1409h260l248 -600h2l260 600h230l-246 -510l211 14v-112l-248 16l-92 -186l340 14v-115l-346 17l2 -547h-240v547l-348 -17v115l342 -14l-90 186l-252 -16v112l213 -14z" />
<glyph unicode="&#xa6;" horiz-adv-x="489" d="M145 373h199v-813h-199v813zM145 795v813h199v-813h-199z" />
<glyph unicode="&#xa7;" d="M145 553q0 199 232 346q-113 106 -113 233.5t92.5 209t250 81.5t270.5 -73l-58 -133q-88 53 -180 53q-154 0 -154 -133q0 -92 123 -197l183 -154q102 -86 143 -163t41 -177q0 -190 -236 -337q133 -123 133 -259.5t-99 -221.5t-267 -85t-287 80l60 150q86 -63 176 -63.5 t138 35.5t48 99q0 92 -98 174l-219 185q-100 86 -139.5 165t-39.5 185zM330 585q0 -126 119 -227l178 -151q149 96 149 218t-114 220l-187 160q-145 -94 -145 -220z" />
<glyph unicode="&#xa8;" horiz-adv-x="454" d="M-74 1354q0 45 35 74.5t82 29.5t82 -29.5t35 -74.5t-35 -76t-82 -31t-82 31t-35 76zM293 1354q0 45 34.5 74.5t82.5 29.5q47 0 81.5 -29.5t34.5 -74.5t-34.5 -76t-81.5 -31t-82 31t-35 76z" />
<glyph unicode="&#xa9;" horiz-adv-x="1667" d="M109 702q0 301 211.5 514.5t512 213.5t513.5 -213.5t213 -514.5t-212 -511.5t-513 -210.5t-513 210.5t-212 511.5zM215 703.5q0 -257.5 180 -437.5t437.5 -180t437.5 180t180 436t-180 438.5t-437 182.5t-437.5 -181t-180.5 -438.5zM410 708.5q0 178.5 126 303.5 t312.5 125t316.5 -152l-88 -74q-100 113 -234 113t-226.5 -93t-92.5 -223t92.5 -223.5t226.5 -93.5t234 113l90 -72q-135 -154 -320 -153.5t-311 126t-126 304z" />
<glyph unicode="&#xaa;" horiz-adv-x="749" d="M82 918q0 131 121 192q90 45 284 64v32q0 109 -139 109q-92 0 -178 -43l-39 100q102 51 248 51q270 0 270 -239v-426q-96 -53 -264 -53q-303 0 -303 213zM240 922q0 -119 153 -119q57 0 94 16v266q-129 -14 -180 -43q-68 -37 -67 -120z" />
<glyph unicode="&#xab;" horiz-adv-x="1087" d="M102 684l308 465l135 -82l-252 -383l252 -383l-135 -82zM512 684l307 465l137 -82l-251 -383l251 -383l-137 -82z" />
<glyph unicode="&#xac;" d="M156 602v164h807v-481h-170v317h-637z" />
<glyph unicode="&#xad;" horiz-adv-x="716" d="M109 594v190h499v-190h-499z" />
<glyph unicode="&#xae;" horiz-adv-x="1667" d="M109 702q0 301 211.5 514.5t512 213.5t513.5 -213.5t213 -514.5t-212 -511.5t-513 -210.5t-513 210.5t-212 511.5zM215 703.5q0 -257.5 180 -437.5t437.5 -180t437.5 180t180 437t-180 439.5t-437 182.5t-437.5 -182t-180.5 -439.5zM596 293v819q90 43 214 43t206 -66.5 t82 -172t-64.5 -167t-171.5 -71.5l277 -385h-142l-260 377h-24v-377h-117zM713 748h63q201 -1 201 165q0 145 -182 146q-37 0 -82 -12v-299z" />
<glyph unicode="&#xaf;" horiz-adv-x="454" d="M-84 1284v135h623v-135h-623z" />
<glyph unicode="&#xb0;" horiz-adv-x="856" d="M113 1118q0 131 92 223.5t223 92.5t223 -92.5t92 -223.5t-92 -223t-223 -92t-223 92t-92 223zM236 1118q0 -80 56 -136t136 -56t136.5 56t56.5 136t-56.5 135.5t-136.5 55.5t-136 -55.5t-56 -135.5z" />
<glyph unicode="&#xb1;" d="M156 141v154h807v-154h-807zM156 743v154h321v328h164v-328h322v-154h-322v-329h-164v329h-321z" />
<glyph unicode="&#xb2;" horiz-adv-x="770" d="M84 545l307 432q76 106 76 180q0 129 -154 129q-78 0 -143 -33l-47 117q96 51 237 51t220 -71q159 -155 -43 -418l-189 -242h309v-145h-573z" />
<glyph unicode="&#xb3;" horiz-adv-x="770" d="M94 586l49 121q72 -39 168 -39q158 0 158 137q0 152 -223 147v103q201 18 200 139q0 102 -129 102q-78 0 -147 -34l-47 110q96 51 222 51t199.5 -55t73.5 -154q0 -123 -129 -182q166 -63 166 -225q0 -123 -89 -199t-232.5 -76t-239.5 54z" />
<glyph unicode="&#xb4;" horiz-adv-x="454" d="M82 1221l141 288q63 37 145.5 37t100.5 -43l-250 -282h-137z" />
<glyph unicode="&#xb6;" d="M51 1014q0 201 135.5 298t343.5 97h504v-117h-65v-1732h-162v1732h-246v-1732h-162v1077q-160 23 -254 123t-94 254z" />
<glyph unicode="&#xb7;" horiz-adv-x="536" d="M117 705q0 63 44 107t107 44t107.5 -44t44.5 -107t-44 -107.5t-108 -44.5q-63 0 -107 44t-44 108z" />
<glyph unicode="&#xb8;" horiz-adv-x="454" d="M-47 -410l49 84q55 -4 104 -4q225 0 226 74q0 61 -146 61q-45 0 -106 -4l47 78q63 6 115 6q260 0 260 -139q0 -164 -375 -164q-80 0 -174 8z" />
<glyph unicode="&#xb9;" horiz-adv-x="770" d="M139 1278q211 25 279 131h125v-864h-176v667q-76 -27 -209 -36z" />
<glyph unicode="&#xba;" horiz-adv-x="749" d="M68 1067q0 160 78.5 259t229.5 99t228.5 -98t77.5 -259t-79 -261t-228 -100q-150 0 -229 100t-78 260zM240 1072q0 -247 135 -247t135 247t-135 247t-135 -247z" />
<glyph unicode="&#xbb;" horiz-adv-x="1087" d="M131 301l252 383l-252 383l137 82l305 -465l-305 -465zM543 301l252 383l-252 383l135 82l307 -465l-307 -465z" />
<glyph unicode="&#xbc;" horiz-adv-x="1687" d="M84 1278q213 27 283 131h122v-864h-176v667q-76 -27 -211 -36zM432 16l658 1434l139 -57l-658 -1436zM975 178v109l344 577h166v-579h65v-107h-65v-178h-168v178h-342zM1087 285h230v286q0 56 2 119h-4q-12 -31 -58 -117z" />
<glyph unicode="&#xbd;" horiz-adv-x="1687" d="M84 1278q213 27 283 131h122v-864h-176v667q-76 -27 -211 -36zM399 16l658 1434l139 -57l-657 -1436zM981 0l307 426q74 102 74 186q0 131 -154 131q-66 0 -131 -32l-47 114q102 51 234 51.5t206.5 -70.5t74 -177.5t-112.5 -247.5l-189 -236h307v-145h-569z" />
<glyph unicode="&#xbe;" horiz-adv-x="1687" d="M94 586l49 121q72 -39 170 -39q156 0 156 137q0 152 -223 147v103q201 18 200 139q0 102 -129 102q-78 0 -147 -34l-47 110q96 51 222 51t199.5 -55t73.5 -154q0 -123 -129 -182q166 -63 166 -225q0 -123 -89 -199t-232.5 -76t-239.5 54zM496 16l657 1434l139 -57 l-659 -1436zM985 178v109l344 577h166v-579h66v-107h-66v-178h-168v178h-342zM1098 285h229v286q0 53 2 119q-12 -29 -61 -117z" />
<glyph unicode="&#xbf;" horiz-adv-x="864" d="M80 -129q0 141 106 240q82 78 193 110l22 264h189l31 -338q-115 -25 -197 -87t-82 -154q0 -188 219 -189q106 0 209 54l68 -148q-141 -80 -333 -80t-308.5 93.5t-116.5 234.5zM344 832.5q0 62.5 44 106.5t106.5 44t105.5 -44t43 -106t-43 -105.5t-105 -43.5t-106.5 43 t-44.5 105.5z" />
<glyph unicode="&#xc0;" horiz-adv-x="1226" d="M25 0l467 1409h245l465 -1409h-268l-109 362h-454l-113 -362h-233zM305 1798q16 43 98.5 43t147.5 -39l141 -286h-139zM412 514h376l-145 496q-31 104 -37 166h-4q-10 -53 -39 -166z" />
<glyph unicode="&#xc1;" horiz-adv-x="1226" d="M25 0l467 1409h245l465 -1409h-268l-109 362h-454l-113 -362h-233zM412 514h376l-145 496q-31 104 -37 166h-4q-10 -53 -39 -166zM518 1516l141 286q63 39 146 39q82 0 100 -43l-250 -282h-137z" />
<glyph unicode="&#xc2;" horiz-adv-x="1226" d="M25 0l467 1409h245l465 -1409h-268l-109 362h-454l-113 -362h-233zM326 1567l209 211q35 35 79.5 34.5t79.5 -34.5l207 -211l-67 -62l-220 158l-219 -158zM412 514h376l-145 496q-31 104 -37 166h-4q-10 -53 -39 -166z" />
<glyph unicode="&#xc3;" horiz-adv-x="1226" d="M25 0l467 1409h245l465 -1409h-268l-109 362h-454l-113 -362h-233zM303 1630q47 106 154 117q63 6 148 -41t132 -41q84 10 119 94l62 -112q-33 -96 -150 -111q-61 -8 -150.5 39t-138.5 41q-80 -8 -117 -96zM412 514h376l-145 496q-31 104 -37 166h-4q-10 -53 -39 -166z " />
<glyph unicode="&#xc4;" horiz-adv-x="1226" d="M25 0l467 1409h245l465 -1409h-268l-109 362h-454l-113 -362h-233zM313 1642q0 45 35 76t82 31t82 -31t35 -76t-35 -74.5t-82 -29.5t-82 29.5t-35 74.5zM412 514h376l-145 496q-31 104 -37 166h-4q-10 -53 -39 -166zM682 1642q0 45 35 76t82 31t81.5 -31t34.5 -76 t-34.5 -74.5t-81.5 -29.5t-82 29.5t-35 74.5z" />
<glyph unicode="&#xc5;" horiz-adv-x="1226" d="M25 0l467 1409h245l465 -1409h-268l-109 362h-454l-113 -362h-233zM412 514h376l-145 496q-31 104 -37 166h-4q-10 -53 -39 -166zM442 1679q0 72 50.5 123t121.5 51q72 0 122 -51t50 -122t-50 -122t-122 -51t-122 50.5t-50 121.5zM524 1680q0 -38 25.5 -64.5t63.5 -26.5 t65 26.5t27 64.5t-27 63.5t-65 25.5t-63.5 -25.5t-25.5 -63.5z" />
<glyph unicode="&#xc6;" horiz-adv-x="1538" d="M-6 0l590 1409h766v-174h-484l107 -426h377v-172h-338l114 -463h363v-174h-578l-80 360h-456l-144 -360h-237zM434 516h377l-111 531q-14 66 -16 135h-4q-6 -31 -41 -135z" />
<glyph unicode="&#xc7;" horiz-adv-x="993" d="M100.5 703q-0.5 307 137.5 507q150 219 405 220q180 0 291 -80l-57 -156q-82 49 -183 49q-168 0 -252 -166q-72 -141 -71.5 -368t75.5 -369q86 -162 248 -162q100 0 178 49l62 -168q-102 -80 -293 -79q-258 0 -399 208t-141.5 515zM279 -410l49 84q55 -4 104 -4 q225 0 225 74q0 61 -145 61q-45 0 -106 -4l47 78q63 6 114 6q260 0 260 -139q0 -164 -376 -164q-80 0 -172 8z" />
<glyph unicode="&#xc8;" horiz-adv-x="919" d="M145 0v1409h686v-174h-425v-426h378v-172h-378v-463h425v-174h-686zM215 1798q16 43 98 43t148 -39l141 -286h-139z" />
<glyph unicode="&#xc9;" horiz-adv-x="919" d="M145 0v1409h686v-174h-425v-426h378v-172h-378v-463h425v-174h-686zM373 1516l141 286q66 39 147 39t99 -43l-248 -282h-139z" />
<glyph unicode="&#xca;" horiz-adv-x="919" d="M145 0v1409h686v-174h-425v-426h378v-172h-378v-463h425v-174h-686zM186 1567l209 211q35 35 80 34q45 0 80 -34l209 -211l-70 -62l-217 158l-221 -158z" />
<glyph unicode="&#xcb;" horiz-adv-x="919" d="M145 0v1409h689v-174h-426v-426h376v-172h-376v-463h426v-174h-689zM182 1642q0 45 35 76t82 31t82 -31t35 -76t-35 -74.5t-82 -29.5t-82 29.5t-35 74.5zM549 1642q0 45 34.5 76t82.5 31q47 0 81.5 -31t34.5 -76t-34.5 -74.5t-81.5 -29.5t-82 29.5t-35 74.5z" />
<glyph unicode="&#xcc;" horiz-adv-x="561" d="M20 1798q16 43 98.5 43t147.5 -39l142 -286h-140zM152 0v1409h260v-1409h-260z" />
<glyph unicode="&#xcd;" horiz-adv-x="561" d="M150 0v1409h262v-1409h-262zM154 1516l141 286q66 39 148 39t98 -43l-248 -282h-139z" />
<glyph unicode="&#xce;" horiz-adv-x="561" d="M-6 1567l207 211q35 35 80 34q45 0 79 -34l207 -211l-67 -62l-219 158l-220 -158zM150 0v1409h262v-1409h-262z" />
<glyph unicode="&#xcf;" horiz-adv-x="561" d="M-20 1642q0 45 34.5 76t81.5 31t82 -31t35 -76t-35 -74.5t-82 -29.5t-81.5 29.5t-34.5 74.5zM150 0v1409h260v-1409h-260zM348 1642q0 45 35 76t82 31t82 -31t35 -76t-35 -74.5t-82 -29.5t-82 29.5t-35 74.5z" />
<glyph unicode="&#xd0;" horiz-adv-x="1292" d="M78 682v149h112v519q156 80 390 80q307 0 459.5 -192.5t152.5 -524.5t-141 -523q-154 -211 -461 -210q-262 0 -400 79v623h-112zM444 178q55 -20 140 -20q182 0 264 135t82 426q0 545 -350 545q-78 0 -136 -23v-410h201v-149h-201v-504z" />
<glyph unicode="&#xd1;" horiz-adv-x="1331" d="M145 0v1409h246l504 -856q43 -74 76 -143h4q-6 74 -6 149v850h217v-1409h-209l-535 909q-43 74 -82 158h-4q8 -86 9 -164v-903h-220zM356 1630q43 106 154 117q61 6 146 -41t135 -41q86 10 116 94l64 -112q-37 -96 -152 -111q-61 -8 -150 39t-137 41q-82 -8 -118 -96z " />
<glyph unicode="&#xd2;" horiz-adv-x="1259" d="M100 705q0 324 123 512q139 213 408 213q268 0 405 -213q123 -188 123 -512t-123 -512q-137 -213 -406 -213t-407 213q-123 188 -123 512zM360 1798q18 43 100.5 43t145.5 -39l142 -286h-138zM365 714.5q0 -542.5 265 -542.5t265 543t-264 542q-266 0 -266 -542.5z" />
<glyph unicode="&#xd3;" horiz-adv-x="1259" d="M100 705q0 324 123 512q139 213 408 213q268 0 405 -213q123 -188 123 -512t-123 -512q-137 -213 -406 -213t-407 213q-123 188 -123 512zM365 714.5q0 -542.5 265 -542.5t265 543t-264 542q-266 0 -266 -542.5zM504 1516l143 286q63 39 145.5 39t98.5 -43l-248 -282 h-139z" />
<glyph unicode="&#xd4;" horiz-adv-x="1259" d="M100 705q0 324 123 512q139 213 408 213q268 0 405 -213q123 -188 123 -512t-123 -512q-137 -213 -406 -213t-407 213q-123 188 -123 512zM342 1567l209 211q35 35 80 34q45 0 80 -34l209 -211l-70 -62l-217 158l-221 -158zM365 714.5q0 -542.5 265 -542.5t265 543 t-264 542q-266 0 -266 -542.5z" />
<glyph unicode="&#xd5;" horiz-adv-x="1259" d="M100 705q0 324 123 512q139 213 408 213q268 0 405 -213q123 -188 123 -512t-123 -512q-137 -213 -406 -213t-407 213q-123 188 -123 512zM319 1630q47 106 156 117q61 6 146.5 -41t132.5 -41q84 10 118 94l62 -112q-33 -96 -150 -111q-61 -8 -150 39t-138 41 q-80 -8 -117 -96zM365 714.5q0 -542.5 265 -542.5t265 543t-264 542q-266 0 -266 -542.5z" />
<glyph unicode="&#xd6;" horiz-adv-x="1259" d="M100 705q0 324 123 512q139 213 408 213q268 0 405 -213q123 -188 123 -512t-123 -512q-137 -213 -406 -213t-407 213q-123 188 -123 512zM330 1642q0 45 34.5 76t81.5 31t82 -31t35 -76t-34.5 -74.5t-82.5 -29.5q-47 0 -81.5 29.5t-34.5 74.5zM365 714.5 q0 -542.5 265 -542.5t265 543t-264 542q-266 0 -266 -542.5zM698 1642q0 45 35 76t82 31t82 -31t35 -76t-35 -74.5t-82 -29.5t-82 29.5t-35 74.5z" />
<glyph unicode="&#xd7;" d="M145 348l306 332l-306 334l111 108l303 -327l301 327l113 -110l-305 -332l305 -334l-111 -108l-303 329l-301 -327z" />
<glyph unicode="&#xd8;" horiz-adv-x="1267" d="M104.5 699q-0.5 330 122.5 518q139 213 408 213q197 0 323 -123l109 172l76 -47l-121 -191q141 -188 141 -524t-123 -524q-137 -213 -405 -213q-209 0 -334 129l-111 -175l-75 48l123 194q-133 193 -133.5 523zM350 713q0 -180 43 -291l451 706q-72 145 -209 146 q-285 0 -285 -561zM422 299q72 -145 213 -145q283 0 283 559q0 176 -46 295z" />
<glyph unicode="&#xd9;" horiz-adv-x="1220" d="M145 410v999h261v-997q0 -109 61 -171.5t154 -62.5q92 0 152.5 61.5t60.5 172.5v997h241v-999q0 -193 -129 -313t-336 -120t-336 120t-129 313zM369 1798q18 43 99 43t146 -39l142 -286h-138z" />
<glyph unicode="&#xda;" horiz-adv-x="1220" d="M145 410v999h261v-997q0 -109 61 -171.5t154 -62.5q92 0 152.5 61.5t60.5 172.5v997h241v-999q0 -193 -129 -313t-336 -120t-336 120t-129 313zM494 1516l141 286q63 39 145 39q83 0 101 -43l-250 -282h-137z" />
<glyph unicode="&#xdb;" horiz-adv-x="1220" d="M145 410v999h261v-997q0 -109 61 -171.5t154 -62.5q92 0 152.5 61.5t60.5 172.5v997h241v-999q0 -193 -129 -313t-336 -120t-336 120t-129 313zM330 1567l209 211q35 35 79.5 34.5t79.5 -34.5l209 -211l-69 -62l-220 158l-219 -158z" />
<glyph unicode="&#xdc;" horiz-adv-x="1220" d="M145 410v999h261v-997q0 -109 61 -171.5t154 -62.5q92 0 152.5 61.5t60.5 172.5v997h241v-999q0 -193 -129 -313t-336 -120t-336 120t-129 313zM322 1642q0 45 34.5 76t81.5 31t82 -31t35 -76t-35 -74.5t-82 -29.5t-81.5 29.5t-34.5 74.5zM690 1642q0 45 34 76t82 31 t83 -31t35 -76t-35 -74.5t-83 -29.5t-82 29.5t-34 74.5z" />
<glyph unicode="&#xdd;" horiz-adv-x="1054" d="M18 1409h281l242 -584h4l250 584h245l-383 -801v-608h-260v608zM434 1516l141 286q63 39 146 39q82 0 100 -43l-250 -282h-137z" />
<glyph unicode="&#xde;" horiz-adv-x="1128" d="M145 0v1409h256v-240q72 20 142 21q250 0 381 -125q118 -116 118 -311.5t-120 -313.5q-135 -129 -387 -129q-39 0 -78 2l-56 4v-317h-256zM401 475l48 -4q27 -2 53 -2q291 0 291 272q0 147 -72 224t-199 77q-61 0 -121 -18v-549z" />
<glyph unicode="&#xdf;" horiz-adv-x="1179" d="M137 0v1061q0 240 103 391q119 174 335 174t329.5 -135t113.5 -338q0 -113 -27 -188q-195 -29 -194 -174q0 -92 131 -181q170 -115 170 -291q0 -150 -105.5 -241.5t-255 -91.5t-223.5 53l45 164q55 -35 128 -35t119 43t46 115q0 100 -129 184q-158 102 -158 262 q0 190 197 254q14 47 14 121q0 311 -188 311q-201 0 -201 -379v-1079h-250z" />
<glyph unicode="&#xe0;" horiz-adv-x="1062" d="M80 315q0 201 182 301q143 78 434 107v59q0 182 -219 183q-137 0 -276 -68l-58 143q172 84 379 84q408 0 408 -381v-684q-150 -80 -400 -79q-451 0 -450 335zM279 1503q18 43 100 43t145 -37l142 -288h-138zM315 324q0 -205 232 -205q88 0 149 31v454q-197 -25 -278 -76 q-102 -63 -103 -204z" />
<glyph unicode="&#xe1;" horiz-adv-x="1062" d="M80 315q0 201 182 301q143 78 434 107v59q0 182 -219 183q-137 0 -276 -68l-58 143q172 84 379 84q408 0 408 -381v-684q-150 -80 -400 -79q-451 0 -450 335zM315 324q0 -205 232 -205q88 0 149 31v454q-197 -25 -278 -76q-102 -63 -103 -204zM451 1221l143 288 q63 37 145.5 37t98.5 -43l-248 -282h-139z" />
<glyph unicode="&#xe2;" horiz-adv-x="1062" d="M80 315q0 201 182 301q143 78 434 107v59q0 182 -219 183q-137 0 -276 -68l-58 143q172 84 379 84q408 0 408 -381v-684q-150 -80 -400 -79q-451 0 -450 335zM250 1272l209 211q35 35 80 35t79 -35l209 -211l-69 -62l-217 160l-222 -160zM315 324q0 -205 232 -205 q88 0 149 31v454q-197 -25 -278 -76q-102 -63 -103 -204z" />
<glyph unicode="&#xe3;" horiz-adv-x="1062" d="M80 315q0 201 182 301q143 78 434 107v59q0 182 -219 183q-137 0 -276 -68l-58 143q172 84 379 84q408 0 408 -381v-684q-150 -80 -400 -79q-451 0 -450 335zM225 1337q47 104 154 115q63 6 148 -39t132 -41q84 8 119 94l62 -114q-37 -94 -152 -109q-61 -8 -150 37 t-137 41q-84 -8 -116 -96zM315 324q0 -205 232 -205q88 0 149 31v454q-197 -25 -278 -76q-102 -63 -103 -204z" />
<glyph unicode="&#xe4;" horiz-adv-x="1062" d="M80 315q0 201 182 301q143 78 434 107v59q0 182 -219 183q-137 0 -276 -68l-58 143q172 84 379 84q408 0 408 -381v-684q-150 -80 -400 -79q-451 0 -450 335zM246 1354q0 45 33.5 74.5t81.5 29.5t83 -30.5t35 -74.5t-35.5 -75t-83.5 -31q-47 0 -80.5 31t-33.5 76z M315 324q0 -205 232 -205q88 0 149 31v454q-197 -25 -278 -76q-102 -63 -103 -204zM614 1354q0 45 34 74.5t81 29.5t82 -29.5t35 -74.5t-35 -76t-82 -31t-81 31t-34 76z" />
<glyph unicode="&#xe5;" horiz-adv-x="1062" d="M80 315q0 201 182 301q143 78 434 107v59q0 182 -219 183q-137 0 -276 -68l-58 143q172 84 379 84q408 0 408 -381v-684q-150 -80 -400 -79q-451 0 -450 335zM315 324q0 -205 232 -205q88 0 149 31v454q-197 -25 -278 -76q-102 -63 -103 -204zM371 1386q0 72 51 122.5 t123 50.5t122 -50.5t50 -122.5t-50.5 -123t-121.5 -51q-72 0 -123 51.5t-51 122.5zM455 1385q0 -38 25.5 -63.5t63.5 -25.5t64.5 25.5t26.5 63.5t-26.5 65t-64.5 27t-63.5 -27t-25.5 -65z" />
<glyph unicode="&#xe6;" horiz-adv-x="1673" d="M80 315q0 344 610 408v59q0 184 -225 185q-127 0 -266 -66l-54 141q152 82 374 82t300 -174q104 174 321.5 174t331 -144t107.5 -423l-672 -96q25 -309 299 -309q164 0 275 57l61 -152q-145 -78 -371 -77.5t-348 182.5q-92 -182 -334 -182q-410 0 -409 335zM305 322 q0 -201 197 -201q80 0 134 50t54 134v293q-197 -23 -280 -74q-104 -63 -105 -202zM893 590l453 67q-2 315 -220 316q-109 0 -168 -92q-68 -100 -65 -291z" />
<glyph unicode="&#xe7;" horiz-adv-x="851" d="M92 554q0 267 124 418.5t302 151.5t268 -75l-53 -142q-59 47 -147 47q-242 0 -242 -395q0 -186 62.5 -292.5t164 -106.5t160.5 49l57 -154q-84 -76 -268.5 -75.5t-306 154t-121.5 420.5zM164 -410l49 84q55 -4 104 -4q225 0 226 74q0 61 -146 61q-45 0 -106 -4l47 78 q63 6 115 6q260 0 260 -139q0 -164 -375 -164q-80 0 -174 8z" />
<glyph unicode="&#xe8;" horiz-adv-x="1099" d="M92 551q0 272 126 422.5t346 150.5t335 -144.5t107 -420.5l-676 -98q31 -307 301 -307q160 0 278 61l60 -158q-141 -78 -372 -77.5t-368 150t-137 421.5zM283 1503q18 43 100 43t145 -37l142 -288h-138zM315 588l457 69q0 313 -217 314q-115 0 -179.5 -96t-60.5 -287z " />
<glyph unicode="&#xe9;" horiz-adv-x="1099" d="M92 551q0 272 126 422.5t346 150.5t335 -144.5t107 -420.5l-676 -98q31 -307 301 -307q160 0 278 61l60 -158q-141 -78 -372 -77.5t-368 150t-137 421.5zM315 588l457 69q0 313 -217 314q-115 0 -179.5 -96t-60.5 -287zM463 1221l143 288q63 37 145.5 37t98.5 -43 l-248 -282h-139z" />
<glyph unicode="&#xea;" horiz-adv-x="1099" d="M92 551q0 272 126 422.5t346 150.5t335 -144.5t107 -420.5l-676 -98q31 -307 301 -307q160 0 278 61l60 -158q-141 -78 -372 -77.5t-368 150t-137 421.5zM270 1272l209 211q35 35 80 35t80 -35l209 -211l-70 -62l-219 160l-219 -160zM315 588l457 69q0 313 -217 314 q-115 0 -179.5 -96t-60.5 -287z" />
<glyph unicode="&#xeb;" horiz-adv-x="1099" d="M92 551q0 272 126 422.5t346 150.5t335 -144.5t107 -420.5l-676 -98q31 -307 301 -307q160 0 278 61l60 -158q-141 -78 -372 -77.5t-368 150t-137 421.5zM262 1354q0 45 35 74.5t82 29.5t82 -29.5t35 -74.5t-35 -76t-82 -31t-82 31t-35 76zM315 588l457 69 q0 313 -217 314q-115 0 -179.5 -96t-60.5 -287zM631 1354q0 45 33.5 74.5t82 29.5t83 -29.5t34.5 -74.5t-34.5 -76t-82.5 -31t-82 31t-34 76z" />
<glyph unicode="&#xec;" horiz-adv-x="532" d="M6 1503q16 43 98 43t146 -37l143 -288h-139zM141 0v1104h250v-1104h-250z" />
<glyph unicode="&#xed;" horiz-adv-x="532" d="M141 0v1104h250v-1104h-250zM141 1221l142 288q63 37 145 37t100 -43l-249 -282h-138z" />
<glyph unicode="&#xee;" horiz-adv-x="532" d="M-23 1272l209 211q35 35 80 35t80 -35l209 -211l-70 -62l-217 160l-221 -160zM143 0v1104h248v-1104h-248z" />
<glyph unicode="&#xef;" horiz-adv-x="532" d="M-33 1354q0 45 34 74.5t82 29.5t83 -30.5t35 -74.5t-36 -75t-83 -31t-81 31t-34 76zM141 0v1104h250v-1104h-250zM334 1354q0 45 33.5 74.5t82 29.5t83 -29.5t34.5 -74.5t-34.5 -76t-82.5 -31t-82 31t-34 76z" />
<glyph unicode="&#xf0;" horiz-adv-x="1110" d="M92 535q0 250 109 405q121 174 334 174q63 0 122 -16q-68 160 -127 252l-184 -58q-27 53 -65 97l180 55q-41 59 -96 117l208 65q29 -29 97 -113l164 52q27 -31 67 -95l-164 -53q273 -432 273 -864q0 -262 -115 -419t-335 -157t-344 154t-124 404zM340 559.5 q0 -409.5 217 -409.5q205 -1 205 407q0 223 -66 395q-61 16 -116 17q-240 0 -240 -409.5z" />
<glyph unicode="&#xf1;" horiz-adv-x="1136" d="M133 0v1044q170 80 436 80q434 0 435 -333v-791h-250v791q0 176 -199 176q-94 0 -172 -31v-936h-250zM254 1337q47 104 156 115q61 6 146 -39t132 -41q84 8 119 94l61 -114q-35 -94 -149 -109q-61 -8 -150.5 37t-138.5 41q-78 -8 -117 -96z" />
<glyph unicode="&#xf2;" horiz-adv-x="1101" d="M92 552q0 257 118 415t342 157.5t341 -158t117 -414.5t-118 -415t-341 -157q-223 0 -341 157.5t-118 414.5zM270 1503q16 43 99.5 43t146.5 -37l141 -288h-139zM340 558.5q0 -408.5 211 -408.5t211 408.5t-211 408.5t-211 -408.5z" />
<glyph unicode="&#xf3;" horiz-adv-x="1101" d="M92 552q0 257 118 415t342 157.5t341 -158t117 -414.5t-118 -415t-341 -157q-223 0 -341 157.5t-118 414.5zM340 558.5q0 -408.5 211 -408.5t211 408.5t-211 408.5t-211 -408.5zM451 1221l143 288q63 37 145.5 37t98.5 -43l-248 -282h-139z" />
<glyph unicode="&#xf4;" horiz-adv-x="1101" d="M92 552q0 257 118 415t342 157.5t341 -158t117 -414.5t-118 -415t-341 -157q-223 0 -341 157.5t-118 414.5zM262 1272l209 211q35 35 80 35t80 -35l209 -211l-70 -62l-219 160l-219 -160zM340 558.5q0 -408.5 211 -408.5t211 408.5t-211 408.5t-211 -408.5z" />
<glyph unicode="&#xf5;" horiz-adv-x="1101" d="M92 552q0 257 118 415t342 157.5t341 -158t117 -414.5t-118 -415t-341 -157q-223 0 -341 157.5t-118 414.5zM242 1337q43 104 153 115q61 6 147.5 -39t133.5 -41q86 8 117 94l63 -114q-37 -94 -151 -109q-61 -8 -150.5 37t-136.5 41q-82 -8 -119 -96zM340 558.5 q0 -408.5 211 -408.5t211 408.5t-211 408.5t-211 -408.5z" />
<glyph unicode="&#xf6;" horiz-adv-x="1101" d="M92 552q0 257 118 415t342 157.5t341 -158t117 -414.5t-118 -415t-341 -157q-223 0 -341 157.5t-118 414.5zM250 1354q0 45 34.5 74.5t82.5 29.5q47 0 81.5 -29.5t34.5 -74.5t-34.5 -76t-81.5 -31t-82 31t-35 76zM340 558.5q0 -408.5 211 -408.5t211 408.5t-211 408.5 t-211 -408.5zM618 1354q0 45 34 74.5t82 29.5t83 -30.5t35 -74.5t-36 -75t-83 -31t-81 31t-34 76z" />
<glyph unicode="&#xf7;" d="M156 614v129h807v-129h-807zM440 350q0 49 35 84t83 35t83 -35t35 -84t-35 -83t-83 -34t-83 34t-35 83zM440 1008q0 49 35 83.5t83 34.5t83 -34.5t35 -83.5t-35 -83t-83 -34t-83 33.5t-35 83.5z" />
<glyph unicode="&#xf8;" horiz-adv-x="1110" d="M92 531.5q0 277.5 119 435.5t342 157q141 0 246 -71l90 157l63 -36l-96 -164q162 -156 162 -459q0 -254 -120 -413t-343 -158q-150 0 -250 75l-94 -161l-64 34l101 172q-156 154 -156 431.5zM322 555q0 -158 40 -254l351 602q-61 84 -158 84q-233 0 -233 -432zM397 217 q61 -84 158 -84q231 0 231 422q0 170 -41 264z" />
<glyph unicode="&#xf9;" d="M133 350v754h250v-768q0 -186 186 -186q102 0 166 36v918h250v-1038q-166 -88 -424 -89q-428 0 -428 373zM299 1503q16 43 99 43t147 -37l141 -288h-139z" />
<glyph unicode="&#xfa;" d="M133 350v754h250v-768q0 -186 186 -186q102 0 166 36v918h250v-1038q-166 -88 -424 -89q-428 0 -428 373zM461 1221l141 288q63 37 146.5 37t99.5 -43l-248 -282h-139z" />
<glyph unicode="&#xfb;" d="M133 350v754h250v-768q0 -186 186 -186q102 0 166 36v918h250v-1038q-166 -88 -424 -89q-428 0 -428 373zM272 1272l207 211q35 35 80 35t80 -35l209 -211l-70 -62l-217 160l-221 -160z" />
<glyph unicode="&#xfc;" d="M133 350v754h250v-768q0 -186 186 -186q102 0 166 36v918h250v-1038q-166 -88 -424 -89q-428 0 -428 373zM258 1354q0 45 35 74.5t82 29.5t82 -29.5t35 -74.5t-35 -76t-82 -31t-82 31t-35 76zM627 1354q0 45 33.5 74.5t81.5 29.5t83 -29.5t35 -74.5t-34.5 -76t-83 -31 t-82 31t-33.5 76z" />
<glyph unicode="&#xfd;" horiz-adv-x="1034" d="M43 1104h266l219 -825h4l228 825h235l-503 -1544h-267l185 440zM426 1221l141 288q63 37 146.5 37t99.5 -43l-248 -282h-139z" />
<glyph unicode="&#xfe;" horiz-adv-x="1126" d="M133 -440v2048h248v-533q86 45 192 45q211 0 336 -143t125 -408t-141 -428q-137 -154 -352 -153q-88 0 -158 20v-448h-250zM383 152q61 -16 109 -17q294 0 294 419t-274 419q-68 0 -129 -29v-792z" />
<glyph unicode="&#xff;" horiz-adv-x="1034" d="M43 1104h266l219 -825h4l228 825h235l-503 -1544h-267l185 440zM231 1354q0 45 35 74.5t82 29.5t82 -29.5t35 -74.5t-35 -76t-82 -31t-82 31t-35 76zM600 1354q0 45 34 74.5t82 29.5t83 -30.5t35 -74.5t-36 -75t-83 -31t-81 31t-34 76z" />
<glyph unicode="&#x152;" horiz-adv-x="1568" d="M100.5 705.5q-0.5 333.5 144.5 529t429 195.5q94 0 172 -21h635v-174h-426v-426h379v-172h-379v-461h426v-176h-635q-70 -20 -170 -20q-285 0 -430 196t-145.5 529.5zM367 711q0 -557 319 -557q76 0 125 12v1085q-57 16 -125 17q-319 0 -319 -557z" />
<glyph unicode="&#x153;" horiz-adv-x="1738" d="M92 552q0 257 115 409q121 164 337 163.5t324 -200.5q109 201 336 200q449 0 441 -573l-668 -80q31 -319 297 -319q162 0 274 61l60 -156q-145 -78 -365 -77q-258 0 -369 221q-100 -221 -324 -221t-341 157.5t-117 414.5zM334 558q0 -409 213 -408q211 -1 211 405 q0 184 -33 276q-49 135 -178 136q-213 0 -213 -409zM963 600l448 53q0 326 -219 326q-109 0 -172.5 -96t-56.5 -283z" />
<glyph unicode="&#x178;" horiz-adv-x="1054" d="M18 1409h281l242 -584h4l250 584h245l-383 -801v-608h-260v608zM240 1642q0 45 33.5 76t80.5 31t83 -31t36 -75t-35 -74.5t-83 -30.5t-81.5 29.5t-33.5 74.5zM608 1642q0 45 34 76t81 31t82 -31t35 -76t-35 -74.5t-82 -29.5t-81 29.5t-34 74.5z" />
<glyph unicode="&#x2c6;" horiz-adv-x="454" d="M-61 1272l208 211q35 35 80 35t80 -35l209 -211l-70 -62l-219 160l-219 -160z" />
<glyph unicode="&#x2dc;" horiz-adv-x="454" d="M-80 1337q47 104 154 115q63 6 148 -39t132 -41q84 8 119 94l62 -114q-33 -94 -152 -109q-61 -8 -150.5 37t-136.5 41q-84 -8 -116 -96z" />
<glyph unicode="&#x2000;" horiz-adv-x="926" />
<glyph unicode="&#x2001;" horiz-adv-x="1853" />
<glyph unicode="&#x2002;" horiz-adv-x="926" />
<glyph unicode="&#x2003;" horiz-adv-x="1853" />
<glyph unicode="&#x2004;" horiz-adv-x="617" />
<glyph unicode="&#x2005;" horiz-adv-x="463" />
<glyph unicode="&#x2006;" horiz-adv-x="308" />
<glyph unicode="&#x2007;" horiz-adv-x="308" />
<glyph unicode="&#x2008;" horiz-adv-x="231" />
<glyph unicode="&#x2009;" horiz-adv-x="370" />
<glyph unicode="&#x200a;" horiz-adv-x="102" />
<glyph unicode="&#x2010;" horiz-adv-x="716" d="M109 594v190h499v-190h-499z" />
<glyph unicode="&#x2011;" horiz-adv-x="716" d="M109 594v190h499v-190h-499z" />
<glyph unicode="&#x2012;" horiz-adv-x="716" d="M109 594v190h499v-190h-499z" />
<glyph unicode="&#x2013;" horiz-adv-x="839" d="M0 608v158h840v-158h-840z" />
<glyph unicode="&#x2014;" horiz-adv-x="1679" d="M0 618v136h1679v-136h-1679z" />
<glyph unicode="&#x2018;" horiz-adv-x="587" d="M102 1059l285 549h129l-174 -549q-51 -72 -138 -72t-102 72z" />
<glyph unicode="&#x2019;" horiz-adv-x="587" d="M72 997l174 549q51 72 137 72t102 -72l-284 -549h-129z" />
<glyph unicode="&#x201a;" horiz-adv-x="587" d="M72 -346l174 549q51 72 136 72t103 -72l-284 -549h-129z" />
<glyph unicode="&#x201c;" horiz-adv-x="987" d="M102 1059l285 549h129l-174 -549q-51 -72 -138 -72t-102 72zM504 1059l282 549h129l-172 -549q-51 -72 -138 -72t-101 72z" />
<glyph unicode="&#x201d;" horiz-adv-x="987" d="M72 997l174 549q51 72 137 72t102 -72l-284 -549h-129zM473 997l172 549q51 72 139.5 72t100.5 -72l-285 -549h-127z" />
<glyph unicode="&#x201e;" horiz-adv-x="987" d="M72 -346l174 549q51 72 136 72t103 -72l-284 -549h-129zM473 -346l172 549q51 72 138.5 72t101.5 -72l-285 -549h-127z" />
<glyph unicode="&#x2022;" horiz-adv-x="733" d="M125 735q0 100 70.5 171t171.5 71q100 0 170.5 -71t70.5 -171t-70.5 -170.5t-170.5 -70.5t-171 70.5t-71 170.5z" />
<glyph unicode="&#x2026;" horiz-adv-x="1808" d="M152 138q0 62 44 105.5t106 43.5t105.5 -43.5t43.5 -105.5t-43 -106t-105.5 -44t-106.5 44t-44 106zM754 138q0 62 44 105.5t106 43.5t106.5 -43.5t44.5 -105.5t-44 -106t-106.5 -44t-106.5 44t-44 106zM1358 138q0 62 44 105.5t105 43.5t105.5 -43.5t44.5 -105.5 t-44 -106t-106 -44q-61 0 -105 44t-44 106z" />
<glyph unicode="&#x202f;" horiz-adv-x="370" />
<glyph unicode="&#x2039;" horiz-adv-x="675" d="M102 684l308 465l135 -82l-252 -383l252 -383l-135 -82z" />
<glyph unicode="&#x203a;" horiz-adv-x="675" d="M131 301l250 383l-250 383l135 82l307 -465l-307 -465z" />
<glyph unicode="&#x205f;" horiz-adv-x="463" />
<glyph unicode="&#x2122;" horiz-adv-x="1601" d="M84 1313v96h514v-96h-192v-611h-127v611h-195zM629 702l98 707h168l160 -567l155 567h170l97 -707h-125l-68 578l-172 -578h-119l-174 578l-65 -578h-125z" />
<glyph unicode="&#xe000;" horiz-adv-x="1105" d="M0 0v1105h1105v-1105h-1105z" />
</font>
</defs>
</svg>
