<?xml version="1.0" standalone="no"?>
<!DOCTYPE svg PUBLIC "-//W3C//DTD SVG 1.1//EN" "http://www.w3.org/Graphics/SVG/1.1/DTD/svg11.dtd" >
<svg xmlns="http://www.w3.org/2000/svg">
<metadata></metadata>
<defs>
<font id="dax-regularregular" horiz-adv-x="1081" >
<font-face units-per-em="2048" ascent="1638" descent="-410" />
<missing-glyph horiz-adv-x="565" />
<glyph horiz-adv-x="2048" />
<glyph horiz-adv-x="2048" />
<glyph unicode="&#xd;" horiz-adv-x="565" />
<glyph unicode=" "  horiz-adv-x="565" />
<glyph unicode="&#x09;" horiz-adv-x="565" />
<glyph unicode="&#xa0;" horiz-adv-x="565" />
<glyph unicode="!" horiz-adv-x="593" d="M203 109q0 47 34.5 81.5t81.5 34.5q49 0 84 -34.5t35 -81.5q0 -49 -35 -84t-84 -35q-47 0 -81.5 34.5t-34.5 84.5zM213 1409h213l-39 -946h-135z" />
<glyph unicode="&#x22;" horiz-adv-x="786" d="M141 1384q31 43 88 43q55 0 86 -43l-41 -512h-92zM469 1384q35 43 88 43q57 0 88 -43l-41 -512h-94z" />
<glyph unicode="#" d="M57 469v94h228l57 320h-211v92h227l76 434h107l-76 -434h240l75 434h107l-76 -434h213v-92h-229l-60 -320h215v-94h-231l-80 -469h-107l82 469h-239l-86 -469h-105l84 469h-211zM389 563h240l59 320h-242z" />
<glyph unicode="$" d="M160 59l47 125q49 -31 107.5 -49t136.5 -18q121 0 194.5 73.5t73.5 196.5q0 96 -57.5 159.5t-202 119t-216 150.5t-71.5 218q0 152 93 261.5t251 127.5l-18 236h114l-18 -234q78 0 142.5 -20.5t113.5 -52.5l-43 -109q-45 29 -98.5 45.5t-122.5 16.5q-111 0 -174.5 -68 t-63.5 -182q0 -104 60.5 -160.5t208 -115t217 -158t69.5 -224.5q0 -164 -98 -275t-260 -134l18 -250h-119l19 246q-104 0 -176 19.5t-127 55.5z" />
<glyph unicode="%" horiz-adv-x="1748" d="M141 950q0 203 59.5 342.5t217.5 139.5q154 0 214 -140.5t60 -341.5q0 -203 -59 -342t-215 -139q-158 0 -217.5 138t-59.5 343zM264 952q0 -174 29 -282.5t125 -108.5q92 0 121.5 112.5t29.5 278.5q0 225 -39.5 312.5t-111.5 87.5q-94 0 -124 -114t-30 -286zM586 12 l479 1411l94 -26l-479 -1413zM1057 461q0 203 59.5 341t214.5 138q154 0 215.5 -139t61.5 -340q0 -205 -60.5 -344.5t-216.5 -139.5t-215 140.5t-59 343.5zM1180 463q0 -170 28.5 -280.5t122.5 -110.5q92 0 123 111.5t31 279.5q0 223 -40 310t-114 87q-92 0 -121.5 -114.5 t-29.5 -282.5z" />
<glyph unicode="&#x26;" horiz-adv-x="1267" d="M109 383q0 152 98 258.5t268 157.5q-133 39 -204.5 118.5t-71.5 194.5q0 139 103.5 228.5t279.5 89.5q84 0 161.5 -22t126.5 -52l-51 -105q-39 23 -93 39.5t-110 16.5q-121 0 -179 -54.5t-58 -150.5q0 -102 75.5 -163.5t192.5 -61.5q125 0 264.5 45t270.5 114l51 -114 q-43 -20 -110.5 -45t-116.5 -37v-781q-55 -37 -152.5 -58t-224.5 -21q-240 0 -380 107.5t-140 295.5zM303 393q0 -137 85 -216t249 -79q129 0 192 31v672q-287 -68 -406.5 -155t-119.5 -253z" />
<glyph unicode="'" horiz-adv-x="458" d="M141 1384q31 43 88 43t88 -43l-43 -512h-92z" />
<glyph unicode="(" horiz-adv-x="743" d="M139 586q0 262 105.5 511t341.5 535l88 -53q-160 -223 -250 -476t-90 -517q0 -270 88 -518t252 -478l-88 -53q-229 283 -338 536t-109 513z" />
<glyph unicode=")" horiz-adv-x="743" d="M70 -410q160 227 250 478t90 518q0 270 -88.5 517t-251.5 476l88 53q229 -281 337.5 -534.5t108.5 -511.5q0 -260 -106.5 -511t-339.5 -538z" />
<glyph unicode="*" horiz-adv-x="864" d="M106 1380q0 37 26 62.5t61 25.5q37 0 61.5 -24.5t24.5 -63.5q0 -37 -24.5 -61.5t-61.5 -24.5t-62 24.5t-25 61.5zM186 1104q0 37 26 62.5t60 25.5q37 0 61.5 -24.5t24.5 -63.5q0 -37 -24.5 -61.5t-61.5 -24.5t-61.5 24.5t-24.5 61.5zM346 1552q0 37 25.5 62.5t60.5 25.5 q37 0 61.5 -24.5t24.5 -63.5q0 -37 -24.5 -61.5t-61.5 -24.5t-61.5 25t-24.5 61zM358 1303q0 33 21.5 54t52.5 21t52.5 -21.5t21.5 -53.5q0 -31 -21.5 -52.5t-52.5 -21.5t-52.5 21.5t-21.5 52.5zM504 1104q0 37 24.5 61.5t61.5 24.5t61.5 -24.5t24.5 -61.5t-24.5 -61.5 t-61.5 -24.5t-61.5 24.5t-24.5 61.5zM586 1380q0 37 24.5 61.5t61.5 24.5t61.5 -24.5t24.5 -61.5t-24.5 -61.5t-61.5 -24.5t-61.5 24.5t-24.5 61.5z" />
<glyph unicode="+" d="M147 623v122h330v359h125v-359h332v-122h-332v-359h-125v359h-330z" />
<glyph unicode="," horiz-adv-x="536" d="M25 -346l174 506q20 25 48.5 38t71.5 13q39 0 56.5 -13.5t21.5 -37.5l-266 -506h-106z" />
<glyph unicode="-" horiz-adv-x="704" d="M121 618v144h463v-144h-463z" />
<glyph unicode="." horiz-adv-x="512" d="M137 111q0 47 35 81.5t84 34.5t83 -33.5t34 -82.5t-33 -84t-84 -35q-49 0 -84 34.5t-35 84.5z" />
<glyph unicode="/" horiz-adv-x="1153" d="M33 -408l971 2038l116 -57l-970 -2038z" />
<glyph unicode="0" d="M113 705q0 293 97 509t331 216q231 0 329.5 -217.5t98.5 -507.5q0 -293 -97.5 -509t-330.5 -216q-231 0 -329.5 217t-98.5 508zM287 707q0 -330 68.5 -467.5t185.5 -137.5q115 0 184.5 138.5t69.5 466.5q0 334 -68.5 473t-185.5 139q-113 0 -183.5 -142.5t-70.5 -469.5z " />
<glyph unicode="1" d="M174 1192q174 23 282.5 82t157.5 135h125v-1409h-184v1184q-57 -37 -158.5 -64.5t-201.5 -36.5z" />
<glyph unicode="2" d="M82 0l498 707q80 113 106.5 186.5t26.5 146.5q0 254 -291 254q-82 0 -139.5 -15t-112.5 -42l-47 117q74 39 153.5 57.5t200.5 18.5q197 0 312.5 -103.5t115.5 -269.5q0 -80 -42 -177.5t-136 -222.5l-377 -507h572v-150h-840z" />
<glyph unicode="3" d="M92 53l51 123q45 -27 117 -44t158 -17q143 0 226 76.5t83 216.5q0 176 -122 237.5t-281 61.5v102q158 0 257 79t99 202q0 109 -67.5 158.5t-174.5 49.5q-74 0 -146.5 -15t-117.5 -40l-47 113q57 33 141 53.5t197 20.5q172 0 284.5 -85t112.5 -235q0 -125 -84 -206 t-178 -113q135 -41 228.5 -130.5t93.5 -252.5q0 -190 -133 -309t-338 -119q-127 0 -209 17t-150 56z" />
<glyph unicode="4" d="M113 322v116l569 971h172v-981h115v-106h-115v-322h-166v322h-575zM238 428h450v592l4 205q-10 -20 -33.5 -64.5t-74.5 -132.5z" />
<glyph unicode="5" d="M113 53l47 123q47 -25 121.5 -44t156.5 -19q121 0 214 77.5t93 215.5q0 147 -90 233t-290 86q-74 0 -183 -16l60 700h657v-149h-528l-33 -433q61 6 117 7q240 0 361.5 -116t121.5 -310q0 -178 -133 -303t-340 -125q-221 0 -352 73z" />
<glyph unicode="6" d="M119 512q0 289 121.5 483.5t278.5 295t284 130.5l47 -121q-166 -55 -305 -167.5t-217 -327.5q45 16 93 26.5t101 10.5q195 0 322 -109.5t127 -320.5q0 -182 -109.5 -307t-312.5 -125q-213 0 -321.5 142t-108.5 390zM287 508q0 -190 64.5 -298t201.5 -108 q123 0 184.5 92.5t61.5 225.5q0 160 -75.5 240.5t-231.5 80.5q-59 0 -106.5 -11t-80.5 -25q-10 -51 -14 -97.5t-4 -99.5z" />
<glyph unicode="7" d="M131 1260v149h873l-189 -440q-119 -279 -218 -549t-138 -420h-226l551 1260h-653z" />
<glyph unicode="8" d="M113 332q0 123 69.5 214t239.5 189q-145 84 -204.5 165t-59.5 194q0 145 111.5 240.5t271.5 95.5q162 0 272.5 -93.5t110.5 -240.5q0 -111 -59.5 -191t-205.5 -164q168 -100 239 -193t71 -214q0 -158 -120 -256t-308 -98q-180 0 -304 94t-124 258zM274 338 q0 -106 77 -173t188 -67q115 0 188.5 65.5t73.5 170.5q0 104 -52 176t-212 164q-158 -90 -210.5 -162t-52.5 -174zM313 1098q0 -94 48.5 -153.5t183.5 -141.5q129 72 179 137.5t50 155.5q0 98 -63.5 161.5t-167.5 63.5q-100 0 -165 -62.5t-65 -160.5z" />
<glyph unicode="9" d="M111 987q0 182 111.5 308t312.5 126q211 0 319.5 -142t108.5 -390q0 -289 -122 -483.5t-278.5 -294.5t-283.5 -131l-48 118q219 74 341 203t182 295q-45 -16 -93.5 -26.5t-101.5 -10.5q-197 0 -322.5 108.5t-125.5 319.5zM281 985q0 -322 307 -321q57 0 105 11t83 25 q8 39 12.5 91.5t4.5 105.5q0 190 -65 299t-200 109q-125 0 -186 -92.5t-61 -227.5z" />
<glyph unicode=":" horiz-adv-x="512" d="M137 111q0 47 35 81.5t84 34.5t83 -33.5t34 -82.5t-33 -84t-84 -35q-49 0 -84 34.5t-35 84.5zM137 739q0 49 35 84t84 35q47 0 82 -35t35 -84t-34 -82.5t-83 -33.5t-84 32.5t-35 83.5z" />
<glyph unicode=";" horiz-adv-x="536" d="M25 -346l174 506q23 27 50 41t68 14q37 0 56.5 -15.5t23.5 -39.5l-266 -506h-106zM162 739q0 49 34.5 84t82.5 35q49 0 83.5 -35t34.5 -84q0 -47 -34.5 -81.5t-83.5 -34.5q-47 0 -82 32.5t-35 83.5z" />
<glyph unicode="&#x3c;" d="M147 631v119l787 346v-135l-639 -271l639 -270v-133z" />
<glyph unicode="=" d="M147 440v123h787v-123h-787zM147 803v123h787v-123h-787z" />
<glyph unicode="&#x3e;" d="M147 287v133l639 270l-639 271v135l787 -346v-119z" />
<glyph unicode="?" horiz-adv-x="806" d="M86 1350q55 33 130 54t165 21q182 0 289.5 -90t107.5 -241q0 -125 -93 -213t-202 -119l-22 -299h-135l-29 354q113 25 203 93.5t90 172.5q0 94 -60.5 153.5t-179.5 59.5q-68 0 -118 -14t-95 -39zM276 109q0 49 35 83.5t82 34.5q49 0 84 -34.5t35 -83.5t-35 -84t-84 -35 q-47 0 -82 34.5t-35 84.5z" />
<glyph unicode="@" horiz-adv-x="1781" d="M135 455q0 395 268.5 686t649.5 291q264 0 428 -158t164 -428q0 -236 -125 -474.5t-326 -238.5q-72 0 -108.5 43t-36.5 146q-59 -98 -137 -142.5t-181 -44.5q-117 0 -179.5 92t-62.5 228q0 188 115 373.5t295 185.5q92 0 150.5 -52.5t87.5 -140.5l30 158h103l-70 -324 q-20 -90 -35.5 -168.5t-15.5 -136.5q0 -78 18.5 -106.5t65.5 -28.5q121 0 223.5 215t102.5 416q0 238 -141.5 377t-370.5 139q-348 0 -586 -275.5t-238 -633.5q0 -315 183.5 -486.5t488.5 -171.5q221 0 374.5 73t299.5 228l45 -53q-145 -164 -313 -241.5t-406 -77.5 q-348 0 -554 191t-206 540zM602 459q0 -100 46 -170t134 -70q143 0 228.5 158t85.5 309q0 119 -53.5 182.5t-131.5 63.5q-141 0 -225 -161t-84 -312z" />
<glyph unicode="A" horiz-adv-x="1198" d="M39 0l477 1409h168l475 -1409h-194l-134 422h-483l-137 -422h-172zM381 535h420l-164 534q-27 84 -32 120t-9 50q-6 -25 -14.5 -57.5t-32.5 -112.5z" />
<glyph unicode="B" horiz-adv-x="1150" d="M158 57v1295q59 35 156.5 56.5t209.5 21.5q227 0 351 -96.5t124 -256.5q0 -139 -81.5 -222t-192.5 -105q119 -27 223.5 -125.5t104.5 -243.5q0 -203 -138.5 -302t-371.5 -99q-119 0 -217.5 20t-167.5 57zM336 133q78 -33 199 -33q152 0 239.5 65.5t87.5 213.5 q0 166 -101.5 240.5t-330.5 74.5h-94v-561zM336 788h92q213 0 301 66t88 209q0 258 -295 258q-100 0 -186 -31v-502z" />
<glyph unicode="C" horiz-adv-x="978" d="M111 705q0 309 140 517t388 208q92 0 156.5 -19.5t117.5 -58.5l-45 -111q-37 23 -87 39t-109 16q-188 0 -276.5 -170t-88.5 -421q0 -250 90 -417t273 -167q63 0 106 13t90 42l49 -119q-49 -37 -118.5 -57t-157.5 -20q-246 0 -387 206.5t-141 518.5z" />
<glyph unicode="D" horiz-adv-x="1218" d="M158 55v1297q141 78 364 78q287 0 436.5 -188.5t149.5 -522.5q0 -342 -143.5 -540.5t-434.5 -198.5q-123 0 -217 20t-155 55zM344 139q66 -26 168 -26h8q209 0 301 150.5t92 457.5q0 588 -395 588q-104 0 -174 -29v-1141z" />
<glyph unicode="E" horiz-adv-x="905" d="M158 0v1409h653v-127h-465v-491h418v-125h-418v-539h465v-127h-653z" />
<glyph unicode="F" horiz-adv-x="888" d="M158 0v1409h651v-127h-463v-491h416v-125h-416v-666h-188z" />
<glyph unicode="G" horiz-adv-x="1204" d="M111 715q0 338 169 526.5t422 188.5q111 0 193 -19.5t137 -54.5l-55 -117q-39 25 -103.5 41t-150.5 16q-201 0 -309.5 -148.5t-108.5 -449.5q0 -279 110.5 -433t284.5 -154q66 0 109 9t68 23v529h-240v119h422v-734q-70 -41 -150 -59t-207 -18q-258 0 -424.5 188 t-166.5 547z" />
<glyph unicode="H" horiz-adv-x="1222" d="M158 0v1409h188v-618h531v618h188v-1409h-188v666h-531v-666h-188z" />
<glyph unicode="I" horiz-adv-x="518" d="M164 0v1409h188v-1409h-188z" />
<glyph unicode="J" horiz-adv-x="518" d="M-90 -317q111 29 182.5 123t71.5 241v1362h188v-1352q0 -217 -126 -349t-316 -159v134z" />
<glyph unicode="K" horiz-adv-x="1062" d="M164 0v1409h186v-653l457 653h197l-482 -655l504 -754h-213l-459 729l-4 -729h-186z" />
<glyph unicode="L" horiz-adv-x="841" d="M164 0v1409h188v-1282h424v-127h-612z" />
<glyph unicode="M" horiz-adv-x="1601" d="M109 0l167 1409h199l283 -1018q18 -68 24 -100.5t13 -59.5q6 25 14 61t27 97l290 1020h199l168 -1409h-178l-109 1055q-4 49 -6 99t-4 67q-8 -31 -17.5 -69t-25.5 -97l-299 -1055h-125l-295 1057q-14 49 -24.5 97t-14.5 67q-4 -31 -6 -66t-8 -98l-111 -1057h-161z" />
<glyph unicode="N" horiz-adv-x="1325" d="M158 0v1409h198l576 -989q33 -53 52.5 -94t27.5 -56q0 31 -1 59.5t-1 65.5v31v983h157v-1409h-163l-601 1028q-18 33 -45.5 86t-44.5 84v-74t2 -100v-1024h-157z" />
<glyph unicode="O" horiz-adv-x="1239" d="M111 705q0 324 124.5 524.5t385.5 200.5q258 0 382.5 -201t124.5 -524q0 -326 -123.5 -525.5t-383.5 -199.5t-385 200.5t-125 524.5zM301 711q0 -260 68.5 -426t251.5 -166q180 0 248.5 167t68.5 425q0 256 -70.5 425t-246.5 169t-248 -170t-72 -424z" />
<glyph unicode="P" horiz-adv-x="1075" d="M158 0v1352q59 35 152 56.5t200 21.5q240 0 360.5 -116t120.5 -310q0 -186 -121.5 -308.5t-365.5 -122.5q-45 1 -98 7l-64 6v-586h-184zM342 700l61 -6q27 -2 46.5 -3t31.5 -1q170 0 249 84t79 232q0 156 -73.5 233.5t-233.5 77.5q-55 0 -93 -7t-67 -20v-590z" />
<glyph unicode="Q" horiz-adv-x="1239" d="M111 707q0 324 123.5 523.5t386.5 199.5q260 0 383.5 -200t123.5 -523q0 -231 -63.5 -399.5t-204.5 -264.5l244 -307l-141 -125l-213 391q-66 -16 -129 -16q-260 0 -385 200.5t-125 520.5zM301 715q0 -262 67.5 -427t252.5 -165q182 0 250.5 166t68.5 426t-68.5 425 t-250.5 165q-180 0 -250 -168t-70 -422z" />
<glyph unicode="R" horiz-adv-x="1110" d="M162 0v1354q59 33 150 54.5t200 21.5q236 0 359.5 -110t123.5 -308q0 -178 -116.5 -282.5t-311.5 -104.5l461 -625h-213l-463 657l-4 -657h-186zM348 698q41 -12 121 -12q170 0 255 81t85 237q0 315 -301 315q-104 0 -160 -31v-590z" />
<glyph unicode="S" horiz-adv-x="952" d="M88 57l49 131q47 -29 107.5 -47t138.5 -18q121 0 192.5 71.5t71.5 192.5q0 94 -55 155.5t-204.5 121t-217.5 157t-68 213.5q0 164 110 280t288 116q96 0 166.5 -19.5t121.5 -56.5l-45 -119q-47 29 -101 47t-122 18q-111 0 -172 -67.5t-61 -179.5q0 -98 61.5 -155.5 t211 -117t216 -162t66.5 -221.5q0 -184 -119 -300.5t-307 -116.5q-117 0 -191.5 19t-136.5 58z" />
<glyph unicode="T" horiz-adv-x="872" d="M61 1282v127h750v-127h-281v-1282h-188v1282h-281z" />
<glyph unicode="U" horiz-adv-x="1193" d="M158 401v1008h188v-1006q0 -129 75 -203.5t185 -74.5q109 0 183.5 74.5t74.5 203.5v1006h172v-1008q0 -182 -120.5 -303t-319.5 -121t-318.5 120t-119.5 304z" />
<glyph unicode="V" horiz-adv-x="1083" d="M49 1409h201l260 -991q12 -47 22.5 -97.5t18.5 -87.5l47 185l264 991h178l-409 -1409h-164z" />
<glyph unicode="W" horiz-adv-x="1673" d="M74 1409h194l203 -1018q10 -51 15.5 -98t9.5 -64q4 31 9 57.5t25 104.5l244 1018h144l241 -1018q10 -43 18.5 -93t10.5 -69q6 31 12 75t17 87l213 1018h174l-330 -1409h-166l-238 983q-10 45 -17 87t-13 71q-4 -27 -8.5 -54.5t-22.5 -103.5l-240 -983h-166z" />
<glyph unicode="X" horiz-adv-x="1062" d="M49 0l383 725l-342 684h205l237 -532l273 532h176l-350 -661l385 -748h-213l-275 584l-288 -584h-191z" />
<glyph unicode="Y" horiz-adv-x="1024" d="M35 1409h203l280 -637l295 637h180l-387 -784v-625h-188v625z" />
<glyph unicode="Z" horiz-adv-x="886" d="M49 0l518 1282h-485v127h723l-512 -1282h526v-127h-770z" />
<glyph unicode="[" horiz-adv-x="702" d="M160 -440v2048h440v-107h-278v-1833h280v-108h-442z" />
<glyph unicode="\" horiz-adv-x="1163" d="M33 1571l121 61l976 -2038l-120 -59z" />
<glyph unicode="]" horiz-adv-x="702" d="M100 -332h279v1833h-279v107h443v-2048h-443v108z" />
<glyph unicode="^" horiz-adv-x="1183" d="M195 981l301 393q39 51 96 51t96 -51l301 -393l-65 -68l-332 377l-332 -377z" />
<glyph unicode="_" d="M-20 -287h1122v-116h-1122v116z" />
<glyph unicode="`" horiz-adv-x="401" d="M-16 1503q6 18 25.5 26.5t49.5 8.5q33 0 58.5 -6t58.5 -27l143 -280h-102z" />
<glyph unicode="a" horiz-adv-x="1021" d="M90 305q0 203 162 293t455 121v67q0 121 -64.5 170.5t-179.5 49.5q-74 0 -139.5 -19.5t-126.5 -50.5l-43 106q55 31 145 56.5t193 25.5q170 0 277.5 -85t107.5 -273v-709q-68 -37 -158 -57t-209 -20q-211 0 -315.5 85t-104.5 240zM262 309q0 -115 67.5 -170t194.5 -55 q115 0 183 37v506q-229 -29 -337 -95.5t-108 -222.5z" />
<glyph unicode="b" horiz-adv-x="1079" d="M145 57v1551h179v-541q51 27 99 39t126 12q193 0 310.5 -148.5t117.5 -398.5q0 -272 -130 -431.5t-372 -159.5q-106 0 -191 21.5t-139 55.5zM324 123q27 -14 69.5 -20.5t85.5 -6.5q164 0 241 124t77 345q0 197 -73 322t-220 125q-59 0 -99 -10.5t-81 -32.5v-846z" />
<glyph unicode="c" horiz-adv-x="841" d="M102 553q0 268 117 419.5t307 151.5q94 0 151.5 -21.5t92.5 -51.5l-43 -105q-29 20 -70 36.5t-94 16.5q-145 0 -211.5 -116.5t-66.5 -323.5q0 -201 70.5 -323.5t201.5 -122.5q55 0 92 13t76 40l45 -113q-35 -33 -97.5 -53t-150.5 -20q-186 0 -303 154.5t-117 418.5z" />
<glyph unicode="d" horiz-adv-x="1079" d="M102 535q0 270 131.5 424.5t348.5 154.5q84 0 174 -24v518h178v-1551q-55 -35 -146 -56t-200 -21q-231 0 -358.5 149.5t-127.5 405.5zM281 549q0 -209 75.5 -330t239.5 -121q113 0 160 31v860q-29 8 -67 14.5t-71 6.5q-178 0 -257.5 -129t-79.5 -332z" />
<glyph unicode="e" horiz-adv-x="1069" d="M102 555q0 274 122 421.5t323 147.5q203 0 311.5 -134t108.5 -406l-695 -101q0 -184 90.5 -278t245.5 -94q90 0 154.5 16t118.5 47l47 -119q-55 -33 -140.5 -54t-193.5 -21q-225 0 -358.5 144t-133.5 431zM266 580l529 79q0 182 -64.5 265.5t-189.5 83.5 q-127 0 -201 -105.5t-74 -322.5z" />
<glyph unicode="f" horiz-adv-x="634" d="M80 991v113h127v156q0 166 95 257t278 91v-115q-88 0 -140.5 -50t-52.5 -163v-176h193v-113h-193v-991h-180v991h-127z" />
<glyph unicode="g" horiz-adv-x="1077" d="M102 532q0 272 128 432t374 160q111 0 192 -21.5t136 -55.5v-1070q0 -207 -112.5 -323.5t-311.5 -116.5q-109 0 -196 19.5t-146 56.5l55 121q47 -27 117 -46.5t139 -19.5q143 0 212 79t69 210v78q-80 -47 -221 -47q-199 0 -317 146.5t-118 397.5zM281 539 q0 -219 72.5 -332t230.5 -113q49 0 94 12.5t80 32.5v846q-27 14 -71 22.5t-87 8.5q-164 0 -241.5 -125t-77.5 -352z" />
<glyph unicode="h" horiz-adv-x="1091" d="M145 0v1608h181v-561q131 67 250 67h4q193 0 279.5 -94t86.5 -232v-788h-180v782q0 98 -50 157.5t-175 59.5q-61 0 -113.5 -12t-101.5 -43v-944h-181z" />
<glyph unicode="i" horiz-adv-x="493" d="M141 1415q0 43 31 72t76 29q43 0 73.5 -29t30.5 -72q0 -41 -30.5 -69.5t-73.5 -28.5q-45 0 -76 28.5t-31 69.5zM158 0v1104h180v-1104h-180z" />
<glyph unicode="j" horiz-adv-x="499" d="M-41 -336q96 35 149.5 126t53.5 261v1053h180v-1041q0 -225 -111.5 -362.5t-271.5 -155.5v119zM145 1415q0 43 31 72t76 29t75.5 -29t30.5 -72q0 -41 -30.5 -69.5t-75.5 -28.5q-43 0 -75 29.5t-32 68.5z" />
<glyph unicode="k" horiz-adv-x="974" d="M156 0v1608h176v-1016l397 512h189l-418 -516l463 -588h-205l-422 569l-4 -569h-176z" />
<glyph unicode="l" horiz-adv-x="497" d="M158 0v1608h180v-1608h-180z" />
<glyph unicode="m" horiz-adv-x="1712" d="M145 0v1047q82 39 169 58t214 19q123 0 204 -33.5t134 -99.5q59 61 144.5 97t197.5 36q182 0 270.5 -96t88.5 -229v-799h-181v795q0 94 -49 152.5t-163 58.5q-135 0 -228 -99v-907h-180v803q0 94 -61.5 149.5t-180.5 55.5q-70 0 -108.5 -7.5t-89.5 -29.5v-971h-181z" />
<glyph unicode="n" horiz-adv-x="1091" d="M145 0v1047q80 39 176.5 58t227.5 19q211 0 304 -95t93 -232v-797h-180v793q0 92 -51 153.5t-180 61.5q-70 0 -115 -9.5t-94 -29.5v-969h-181z" />
<glyph unicode="o" horiz-adv-x="1067" d="M102 551q0 260 107.5 416.5t322.5 156.5q219 0 326 -155.5t107 -417.5q0 -258 -107.5 -414.5t-322.5 -156.5t-324 157.5t-109 413.5zM283 551q0 -201 54 -324t198 -123q143 0 196 124t53 323q0 203 -53 331t-196 128t-197.5 -129t-54.5 -330z" />
<glyph unicode="p" horiz-adv-x="1079" d="M145 -440v1487q61 35 145.5 56t198.5 21q231 0 359.5 -148.5t128.5 -406.5q0 -272 -130 -428.5t-351 -156.5q-43 0 -92.5 8t-79.5 18v-450h-179zM324 119q59 -25 135 -25q166 0 252 122t86 345q0 221 -74 338t-242 117q-49 0 -86 -8.5t-71 -22.5v-866z" />
<glyph unicode="q" horiz-adv-x="1079" d="M102 530q0 270 126 432t376 162q113 0 194 -21.5t136 -55.5v-1487h-176v475q-39 -23 -96.5 -37t-126.5 -14q-199 0 -316 147.5t-117 398.5zM281 539q0 -217 73.5 -331t227.5 -114q53 0 95 11.5t81 33.5v846q-27 14 -71 22.5t-87 8.5q-160 0 -239.5 -126t-79.5 -351z" />
<glyph unicode="r" horiz-adv-x="659" d="M145 0v1044q84 43 184.5 60.5t291.5 17.5l-43 -137q-49 14 -109 14q-86 0 -143 -34v-965h-181z" />
<glyph unicode="s" horiz-adv-x="827" d="M78 59l49 119q33 -29 89 -47t126 -18q90 0 147.5 55t57.5 135q0 82 -43 128t-165 92t-177.5 124t-55.5 176q0 129 91.5 216t238.5 87q80 0 143.5 -20.5t114.5 -54.5l-47 -109q-31 23 -80 42.5t-104 19.5q-88 0 -136 -50.5t-48 -124.5t47 -118.5t167.5 -91t179 -125 t58.5 -187.5q0 -131 -103.5 -227t-267.5 -96q-90 0 -162.5 20.5t-119.5 54.5z" />
<glyph unicode="t" horiz-adv-x="657" d="M80 991v113h127v254l180 55v-309h193v-113h-193v-719q0 -72 34 -115.5t105 -43.5q16 0 54 8v-115q-23 -6 -45.5 -11t-53.5 -5q-139 0 -206.5 81t-67.5 197v723h-127z" />
<glyph unicode="u" horiz-adv-x="1071" d="M145 338v766h181v-772q0 -102 55 -165t166 -63q123 0 198 46v954h181v-1038q-68 -39 -165 -64t-224 -25q-201 0 -296.5 94.5t-95.5 266.5z" />
<glyph unicode="v" horiz-adv-x="999" d="M59 1104h193l231 -791q14 -47 19.5 -83.5t9.5 -51.5q4 25 9 52.5t22 82.5l235 791h168l-358 -1104h-162z" />
<glyph unicode="w" horiz-adv-x="1579" d="M72 1104h184l193 -793q14 -57 17 -86.5t5 -44.5q6 33 15.5 69t15.5 62l223 793h156l217 -793q10 -41 15 -78.5t9 -52.5q4 25 8.5 50.5t18.5 82.5l201 791h163l-315 -1104h-156l-223 788q-14 49 -17 82t-5 48q-4 -25 -9.5 -52.5t-19.5 -77.5l-227 -788h-156z" />
<glyph unicode="x" horiz-adv-x="966" d="M49 0l342 571l-305 533h188l215 -404l224 404h170l-308 -518l343 -586h-199l-238 449l-245 -449h-187z" />
<glyph unicode="y" horiz-adv-x="999" d="M59 1104h193l227 -793q12 -43 17.5 -85t9.5 -56q4 25 8 49.5t25 91.5l239 793h168l-508 -1544h-194l184 440z" />
<glyph unicode="z" horiz-adv-x="854" d="M61 0l465 991h-430v113h660l-455 -991h471v-113h-711z" />
<glyph unicode="{" horiz-adv-x="757" d="M106 625v100q82 0 120 58.5t38 193.5v319q0 158 102.5 235t278.5 77v-99q-221 0 -221 -209v-376q0 -111 -44 -170.5t-126 -77.5q84 -23 127 -82t43 -172v-377q0 -109 54 -159t167 -50v-100q-178 0 -279.5 75.5t-101.5 237.5v320q0 137 -37 196.5t-121 59.5z" />
<glyph unicode="|" horiz-adv-x="466" d="M160 -440v2048h147v-2048h-147z" />
<glyph unicode="}" horiz-adv-x="757" d="M113 -164q223 0 223 209v377q0 109 44 170t124 80q-82 20 -125 80.5t-43 171.5v376q0 109 -56.5 159t-166.5 50v99q178 0 279.5 -76t101.5 -236v-319q0 -137 36.5 -194.5t120.5 -57.5v-100q-82 0 -119.5 -59.5t-37.5 -196.5v-320q0 -162 -101.5 -237.5t-279.5 -75.5v100z " />
<glyph unicode="~" horiz-adv-x="1183" d="M172 653q33 76 77 118t90 47t67 5q72 0 179 -66.5t169 -66.5q16 0 52 5t75 42t61 92l70 -106q-23 -70 -72 -111t-139 -53q-10 -2 -31 -2q-66 0 -174.5 64.5t-171.5 64.5h-25q-63 -8 -102 -47t-61 -90z" />
<glyph unicode="&#xa1;" horiz-adv-x="593" d="M203 860q0 49 34.5 84t81.5 35q49 0 84 -35t35 -84q0 -47 -35 -82t-84 -35q-47 0 -81.5 33t-34.5 84zM213 -440l39 946h135l39 -946h-213z" />
<glyph unicode="&#xa2;" d="M180 705q0 207 95.5 335.5t256.5 151.5l-18 215h123l-14 -211q74 0 126 -16.5t89 -44.5l-39 -95q-33 20 -71 31.5t-93 11.5q-143 0 -212 -99t-69 -273q0 -176 71 -276.5t206 -100.5q49 0 90 11t76 32l41 -103q-35 -25 -89.5 -43t-130.5 -18l17 -211h-125l18 217 q-162 23 -255 148t-93 338z" />
<glyph unicode="&#xa3;" d="M119 676v106h168q-20 68 -33.5 138.5t-13.5 138.5q0 158 113.5 264.5t301.5 106.5q100 0 176 -20.5t123 -51.5l-47 -115q-41 23 -97 39t-126 16q-139 0 -203.5 -77.5t-64.5 -210.5q0 -102 35 -228h278v-106h-258q8 -41 13 -91t5 -96q0 -88 -36.5 -192t-67.5 -147h592 v-150h-836q90 109 145.5 234.5t55.5 250.5q0 84 -27 191h-196z" />
<glyph unicode="&#xa4;" d="M92 322l148 147q-78 100 -78 229t78 230l-148 147l72 72l147 -148q100 78 230 78q129 0 229 -78l148 148l71 -72l-147 -147q78 -100 78 -230q0 -129 -78 -229l147 -147l-71 -72l-148 147q-100 -78 -229 -78t-230 78l-147 -147zM279 698q0 -109 75.5 -186.5t186.5 -77.5 q109 0 185.5 77t76.5 187q0 111 -75.5 187t-186.5 76t-186.5 -76t-75.5 -187z" />
<glyph unicode="&#xa5;" d="M70 1409h190l285 -653l299 653h168l-248 -508l221 14v-92l-250 19l-102 -207l352 14v-94l-356 20v-575h-174v575l-361 -20v94l357 -14l-103 207l-254 -19v92l225 -14z" />
<glyph unicode="&#xa6;" horiz-adv-x="466" d="M160 369h147v-809h-147v809zM160 799v809h147v-809h-147z" />
<glyph unicode="&#xa7;" d="M156 553q0 113 68.5 199t170.5 151q-66 63 -93.5 121.5t-27.5 132.5q0 111 86 188.5t220 77.5q86 0 147 -18.5t107 -50.5l-46 -101q-35 23 -80.5 39.5t-103.5 16.5q-76 0 -124 -40t-48 -114q0 -55 28.5 -106.5t110.5 -118.5l166 -142q109 -92 150 -166.5t41 -177.5 q0 -106 -66.5 -191t-177.5 -151q84 -74 113.5 -138t29.5 -134q0 -123 -93 -205t-240 -82q-88 0 -154 19.5t-117 54.5l49 113q35 -27 84.5 -45.5t108.5 -18.5q80 0 137 43t57 117q0 55 -21.5 98t-92.5 105l-211 178q-100 86 -139 165t-39 181zM297 578q0 -80 31.5 -139.5 t105.5 -123.5l166 -141q82 51 129 109.5t47 138.5q0 84 -24.5 137t-102.5 121l-178 151q-74 -45 -124 -107t-50 -146z" />
<glyph unicode="&#xa8;" horiz-adv-x="401" d="M-61 1350q0 37 27.5 62.5t64.5 25.5q39 0 66.5 -26t27.5 -62q0 -37 -26.5 -61.5t-67.5 -24.5q-39 0 -65.5 24.5t-26.5 61.5zM276 1350q0 37 28 62.5t65 25.5q39 0 65.5 -24.5t26.5 -63.5q0 -37 -26.5 -61.5t-65.5 -24.5t-66 24.5t-27 61.5z" />
<glyph unicode="&#xa9;" horiz-adv-x="1689" d="M121 702q0 301 212 513t511 212q301 0 513 -211.5t212 -513.5q0 -299 -212 -510.5t-513 -211.5t-512 210.5t-211 511.5zM209 702q0 -262 186.5 -448t448.5 -186q264 0 450.5 186t186.5 448t-185.5 449.5t-451.5 187.5q-262 0 -448.5 -186t-186.5 -451zM420 707 q0 180 126 306t304 126q100 0 181 -40t147 -114l-70 -63q-47 57 -115.5 91t-142.5 34q-139 0 -237.5 -98.5t-98.5 -241.5q0 -139 97.5 -238.5t238.5 -99.5q72 0 139.5 31.5t116.5 88.5l74 -57q-129 -156 -330 -156q-178 0 -304 126t-126 305z" />
<glyph unicode="&#xaa;" horiz-adv-x="722" d="M88 922q0 129 106.5 181t301.5 71v38q0 72 -39 99.5t-115 27.5q-43 0 -88 -11t-84 -30l-31 76q39 20 97.5 34.5t123.5 14.5q117 0 186.5 -51t69.5 -170v-434q-43 -23 -105 -37t-138 -14q-143 0 -214 54t-71 151zM207 922q0 -70 45 -99.5t129 -29.5q70 0 115 20v291 q-156 -18 -222.5 -53t-66.5 -129z" />
<glyph unicode="&#xab;" horiz-adv-x="1052" d="M123 684l309 446l96 -63l-262 -383l262 -383l-96 -63zM500 684l309 446l96 -63l-262 -383l262 -383l-96 -63z" />
<glyph unicode="&#xac;" d="M147 627v123h787v-451h-129v328h-658z" />
<glyph unicode="&#xad;" horiz-adv-x="704" d="M121 618v144h463v-144h-463z" />
<glyph unicode="&#xae;" horiz-adv-x="1689" d="M121 702q0 301 212 513t511 212q301 0 513 -211.5t212 -513.5q0 -299 -212 -510.5t-513 -211.5t-512 210.5t-211 511.5zM209 702q0 -262 186.5 -448t448.5 -186q264 0 450.5 186t186.5 448t-185.5 449.5t-451.5 187.5q-262 0 -448.5 -186t-186.5 -451zM618 285v835 q82 41 201 41q121 0 203 -62.5t82 -178.5q0 -109 -70.5 -171.5t-183.5 -62.5l291 -401h-115l-281 395h-30v-395h-97zM715 748h76q94 0 154.5 40.5t60.5 133.5q0 86 -58.5 122.5t-140.5 36.5q-53 0 -92 -16v-317z" />
<glyph unicode="&#xb0;" horiz-adv-x="860" d="M123 1124q0 127 90 217.5t217 90.5t217 -90.5t90 -217.5t-90 -217t-217 -90t-217 90t-90 217zM219 1124q0 -88 61.5 -149.5t149.5 -61.5t149.5 61.5t61.5 149.5t-61.5 149.5t-149.5 61.5t-149.5 -61.5t-61.5 -149.5z" />
<glyph unicode="&#xb1;" d="M147 145v119h787v-119h-787zM147 745v119h330v350h125v-350h332v-119h-332v-354h-125v354h-330z" />
<glyph unicode="&#xb2;" horiz-adv-x="753" d="M98 555l312 430q43 61 60 103t17 86q0 63 -43 103t-125 40q-78 0 -143 -33l-39 88q43 23 100.5 36t118.5 13q123 0 196 -64.5t73 -170.5q0 -51 -26 -109.5t-83 -132.5l-215 -278h330v-111h-533z" />
<glyph unicode="&#xb3;" horiz-adv-x="753" d="M109 592l36 92q74 -39 168 -39q82 0 128 42t46 118q0 98 -70.5 133t-168.5 35v82q98 0 154.5 44t56.5 109q0 61 -37 89t-100 28q-78 0 -148 -35l-37 84q47 27 95.5 38t111.5 11q104 0 175 -53t71 -147q0 -70 -41 -116t-98 -73q76 -27 125 -81t49 -148q0 -119 -83 -191.5 t-208 -72.5q-135 0 -225 51z" />
<glyph unicode="&#xb4;" horiz-adv-x="401" d="M82 1225l143 280q57 35 119 35q61 0 74 -37l-234 -278h-102z" />
<glyph unicode="&#xb5;" horiz-adv-x="1091" d="M145 -440v1544h181v-944q102 -57 223 -58q76 0 124 10.5t93 34.5v957h180v-1036q-78 -43 -157.5 -62.5t-202.5 -19.5q-68 0 -133.5 17t-126.5 52v-495h-181z" />
<glyph unicode="&#xb6;" d="M57 1030q0 195 127 287t326 92h485v-92h-63v-1757h-129v1757h-277v-1757h-129v1106q-156 16 -248 114.5t-92 249.5z" />
<glyph unicode="&#xb8;" horiz-adv-x="401" d="M-61 -401l41 69q176 0 262 13.5t86 62.5q0 43 -55.5 54.5t-204.5 11.5l41 63q61 6 110 6q129 0 186.5 -36t57.5 -97q0 -88 -127 -117.5t-397 -29.5z" />
<glyph unicode="&#xb9;" horiz-adv-x="753" d="M152 1276q104 12 170.5 48t99.5 85h90v-854h-131v688q-113 -39 -217 -39z" />
<glyph unicode="&#xba;" horiz-adv-x="722" d="M72 1073q0 162 71.5 258t216.5 96q147 0 219 -97t72 -257t-72 -257t-217 -97t-217.5 98t-72.5 256zM201 1075q0 -121 34.5 -193.5t126.5 -72.5q90 0 125 72.5t35 191.5q0 125 -34 200t-126 75t-126.5 -75t-34.5 -198z" />
<glyph unicode="&#xbb;" horiz-adv-x="1052" d="M147 301l263 383l-263 383l99 63l309 -446l-309 -446zM526 301l260 383l-260 383l97 63l307 -446l-307 -446z" />
<glyph unicode="&#xbc;" horiz-adv-x="1636" d="M98 1276q96 12 169 49t104 84h90v-854h-131v688q-53 -18 -104.5 -28.5t-114.5 -10.5zM408 16l677 1422l109 -45l-678 -1424zM942 190v84l348 582h121v-582h70v-84h-70v-190h-123v190h-346zM1036 274h252v334l2 107q-10 -20 -23.5 -45t-33.5 -62z" />
<glyph unicode="&#xbd;" horiz-adv-x="1636" d="M98 1276q96 12 169 49t104 84h90v-854h-131v688q-53 -18 -104.5 -28.5t-114.5 -10.5zM375 16l678 1422l108 -45l-678 -1424zM952 0l312 424q47 63 61 105t14 89q0 147 -168 148q-29 0 -61.5 -7t-73.5 -30l-37 88q51 29 101.5 40t107.5 11q123 0 196 -66.5t73 -172.5 q0 -55 -23.5 -112.5t-83.5 -133.5l-217 -272h328v-111h-529z" />
<glyph unicode="&#xbe;" horiz-adv-x="1636" d="M109 592l36 92q74 -39 168 -39q84 0 129 41t45 119q0 100 -68.5 134t-168.5 34v82q96 0 152.5 44t56.5 109q0 59 -37 88t-98 29q-78 0 -148 -35l-39 84q90 49 209 49q104 0 174 -53t70 -147q0 -70 -41 -116t-96 -73q74 -25 123 -80t49 -149q0 -119 -81 -191.5t-210 -72.5 q-76 0 -126 11t-99 40zM471 16l678 1422l111 -45l-680 -1424zM952 190v84l348 582h121v-582h70v-84h-70v-190h-123v190h-346zM1047 274h251v334l2 107l-57 -107z" />
<glyph unicode="&#xbf;" horiz-adv-x="806" d="M86 -125q0 125 93 213t202 121l22 299h136l28 -356q-115 -27 -204 -93.5t-89 -171.5q0 -96 60.5 -154.5t179.5 -58.5q68 0 118 14.5t95 39.5l51 -107q-51 -33 -129 -54.5t-166 -21.5q-184 0 -290.5 88t-106.5 242zM352 860q0 49 35 84t84 35q47 0 82 -35t35 -84 q0 -47 -35 -82t-82 -35q-49 0 -84 35t-35 82z" />
<glyph unicode="&#xc0;" horiz-adv-x="1198" d="M39 0l477 1409h168l475 -1409h-194l-134 422h-483l-137 -422h-172zM322 1794q6 18 25.5 26.5t49.5 8.5q63 0 115 -33l145 -280h-102zM381 535h420l-164 534q-27 82 -32 118t-9 48q-6 -23 -14.5 -54.5t-32.5 -111.5z" />
<glyph unicode="&#xc1;" horiz-adv-x="1198" d="M39 0l477 1409h168l475 -1409h-194l-134 422h-483l-137 -422h-172zM381 535h420l-164 534q-27 82 -32 118t-9 48q-6 -23 -14.5 -54.5t-32.5 -111.5zM522 1516l144 280q57 35 116 35q63 0 76 -37l-233 -278h-103z" />
<glyph unicode="&#xc2;" horiz-adv-x="1198" d="M39 0l477 1409h168l475 -1409h-194l-134 422h-483l-137 -422h-172zM330 1556l202 207q29 31 68 31t70 -31l202 -207l-53 -43l-217 162l-221 -162zM381 535h420l-164 534q-27 82 -32 118t-9 48q-6 -23 -14.5 -54.5t-32.5 -111.5z" />
<glyph unicode="&#xc3;" horiz-adv-x="1198" d="M39 0l477 1409h168l475 -1409h-194l-134 422h-483l-137 -422h-172zM309 1612q23 55 55.5 83.5t100.5 28.5q55 0 133 -43t125 -36q45 6 68.5 29.5t37.5 60.5l58 -84q-14 -43 -46 -71t-93 -36q-8 -2 -25 -2q-45 0 -133 39t-129 39q-43 0 -65.5 -34t-33.5 -56zM381 535h420 l-164 534q-27 82 -32 118t-9 48q-6 -23 -14.5 -54.5t-32.5 -111.5z" />
<glyph unicode="&#xc4;" horiz-adv-x="1198" d="M39 0l477 1409h168l475 -1409h-194l-134 422h-483l-137 -422h-172zM340 1638q0 37 27.5 62.5t64.5 25.5q39 0 65.5 -24.5t26.5 -63.5q0 -37 -27.5 -62.5t-64.5 -25.5q-39 0 -65.5 24.5t-26.5 63.5zM381 535h420l-164 534q-27 82 -32 118t-9 48q-6 -23 -14.5 -54.5 t-32.5 -111.5zM676 1638q0 37 27.5 62.5t64.5 25.5q39 0 66.5 -25.5t27.5 -62.5t-27.5 -62.5t-66.5 -25.5q-37 0 -64.5 26t-27.5 62z" />
<glyph unicode="&#xc5;" horiz-adv-x="1198" d="M39 0l477 1409h168l475 -1409h-194l-134 422h-483l-137 -422h-172zM381 535h420l-164 534q-27 82 -32 118t-9 48q-6 -23 -14.5 -54.5t-32.5 -111.5zM436 1675q0 70 48 118t116 48q70 0 118 -48t48 -118q0 -68 -48 -116t-118 -48q-68 0 -116 48.5t-48 115.5zM504 1675 q0 -41 27.5 -68.5t68.5 -27.5t68.5 27.5t27.5 68.5t-27.5 69t-68.5 28t-68.5 -28t-27.5 -69z" />
<glyph unicode="&#xc6;" horiz-adv-x="1525" d="M10 0l588 1409h745v-127h-538l125 -491h413v-125h-385l138 -539h385v-127h-539l-98 422h-492l-168 -422h-174zM397 537h428l-133 583q-10 43 -14 75t-6 56q-6 -25 -13.5 -48t-31.5 -85z" />
<glyph unicode="&#xc7;" horiz-adv-x="978" d="M111 705q0 309 140 517t388 208q92 0 156.5 -19.5t117.5 -58.5l-45 -111q-37 23 -87 39t-109 16q-188 0 -276.5 -170t-88.5 -421q0 -250 90 -417t273 -167q63 0 106 13t90 42l49 -119q-49 -37 -118.5 -57t-157.5 -20q-246 0 -387 206.5t-141 518.5zM285 -401l43 69 q174 0 260 13.5t86 62.5q0 43 -55.5 54.5t-204.5 11.5l41 63q61 6 110 6q129 0 186.5 -36t57.5 -97q0 -88 -126 -117.5t-398 -29.5z" />
<glyph unicode="&#xc8;" horiz-adv-x="903" d="M158 0v1409h653v-127h-465v-491h418v-125h-418v-539h465v-127h-653zM238 1794q14 35 77 35t115 -33l143 -280h-102z" />
<glyph unicode="&#xc9;" horiz-adv-x="903" d="M158 0v1409h653v-127h-465v-491h418v-125h-418v-539h465v-127h-653zM391 1516l144 280q57 35 116 35q63 0 76 -37l-233 -278h-103z" />
<glyph unicode="&#xca;" horiz-adv-x="903" d="M158 0v1409h653v-127h-465v-491h418v-125h-418v-539h465v-127h-653zM203 1556l200 207q31 31 68 31q41 0 72 -31l200 -207l-51 -43l-219 162l-219 -162z" />
<glyph unicode="&#xcb;" horiz-adv-x="903" d="M158 0v1409h653v-127h-465v-491h418v-125h-418v-539h465v-127h-653zM215 1638q0 37 27.5 62.5t64.5 25.5q39 0 66.5 -25.5t27.5 -62.5t-27.5 -62.5t-66.5 -25.5t-65.5 24.5t-26.5 63.5zM551 1638q0 37 27.5 62.5t66.5 25.5q37 0 64.5 -25.5t27.5 -62.5t-27.5 -62.5 t-64.5 -25.5q-39 0 -66.5 26t-27.5 62z" />
<glyph unicode="&#xcc;" horiz-adv-x="518" d="M31 1794q14 35 78 35q63 0 114 -33l144 -280h-103zM166 0v1409h188v-1409h-188z" />
<glyph unicode="&#xcd;" horiz-adv-x="518" d="M152 1516l143 280q57 35 117 35q63 0 75 -37l-235 -278h-100zM164 0v1409h188v-1409h-188z" />
<glyph unicode="&#xce;" horiz-adv-x="518" d="M-12 1556l202 207q29 31 68 31t70 -31l200 -207l-51 -43l-217 162l-221 -162zM164 0v1409h188v-1409h-188z" />
<glyph unicode="&#xcf;" horiz-adv-x="518" d="M-2 1638q0 37 27.5 62.5t64.5 25.5q39 0 65.5 -24.5t26.5 -63.5q0 -37 -27.5 -62.5t-64.5 -25.5q-39 0 -65.5 24.5t-26.5 63.5zM164 0v1409h188v-1409h-188zM334 1638q0 37 27.5 62.5t66.5 25.5q37 0 64.5 -25.5t27.5 -62.5t-27.5 -62.5t-64.5 -25.5q-39 0 -66.5 26 t-27.5 62z" />
<glyph unicode="&#xd0;" horiz-adv-x="1273" d="M86 711v102h125v539q141 78 364 78q289 0 438.5 -187.5t149.5 -523.5q0 -340 -144 -539.5t-435 -199.5q-125 0 -219.5 20t-153.5 57v654h-125zM395 137q29 -10 78 -18t100 -8q207 0 301.5 152.5t94.5 457.5q-1 588 -400 588q-106 0 -174 -27v-469h236v-102h-236v-574z " />
<glyph unicode="&#xd1;" horiz-adv-x="1325" d="M158 0v1409h198l576 -989q33 -53 52.5 -94t27.5 -56q0 31 -1 59.5t-1 65.5v31v983h157v-1409h-163l-601 1028q-18 33 -45.5 86t-44.5 84v-74t2 -100v-1024h-157zM373 1612q23 55 55.5 83.5t99.5 28.5q49 0 134.5 -43t125.5 -36q45 6 69 29.5t38 60.5l55 -84 q-14 -43 -46 -71t-93 -36q-8 -2 -25 -2q-45 0 -132 39t-128 39q-39 0 -61.5 -26.5t-38.5 -63.5z" />
<glyph unicode="&#xd2;" horiz-adv-x="1239" d="M111 705q0 324 124.5 524.5t385.5 200.5q258 0 382.5 -201t124.5 -524q0 -326 -123.5 -525.5t-383.5 -199.5t-385 200.5t-125 524.5zM301 711q0 -260 68.5 -426t251.5 -166q180 0 248.5 167t68.5 425q0 256 -70.5 425t-246.5 169t-248 -170t-72 -424zM379 1794 q14 35 78 35q41 0 63.5 -7t50.5 -26l144 -280h-103z" />
<glyph unicode="&#xd3;" horiz-adv-x="1239" d="M111 705q0 324 124.5 524.5t385.5 200.5q258 0 382.5 -201t124.5 -524q0 -326 -123.5 -525.5t-383.5 -199.5t-385 200.5t-125 524.5zM301 711q0 -260 68.5 -426t251.5 -166q180 0 248.5 167t68.5 425q0 256 -70.5 425t-246.5 169t-248 -170t-72 -424zM514 1516l143 280 q57 35 119 35q61 0 74 -37l-234 -278h-102z" />
<glyph unicode="&#xd4;" horiz-adv-x="1239" d="M111 705q0 324 124.5 524.5t385.5 200.5q258 0 382.5 -201t124.5 -524q0 -326 -123.5 -525.5t-383.5 -199.5t-385 200.5t-125 524.5zM301 711q0 -260 68.5 -426t251.5 -166q180 0 248.5 167t68.5 425q0 256 -70.5 425t-246.5 169t-248 -170t-72 -424zM350 1556l201 207 q31 31 67 31q41 0 72 -31l201 -207l-51 -43l-219 162l-220 -162z" />
<glyph unicode="&#xd5;" horiz-adv-x="1239" d="M111 705q0 324 124.5 524.5t385.5 200.5q258 0 382.5 -201t124.5 -524q0 -326 -123.5 -525.5t-383.5 -199.5t-385 200.5t-125 524.5zM301 711q0 -260 68.5 -426t251.5 -166q180 0 248.5 167t68.5 425q0 256 -70.5 425t-246.5 169t-248 -170t-72 -424zM326 1612 q20 51 54 81.5t99 30.5q45 0 133 -42t127 -37q45 6 68.5 29.5t38.5 60.5l57 -84q-16 -43 -49 -71t-92 -36q-8 -2 -25 -2q-43 0 -131 39t-129 39q-39 0 -62.5 -26.5t-35.5 -63.5z" />
<glyph unicode="&#xd6;" horiz-adv-x="1239" d="M111 705q0 324 124.5 524.5t385.5 200.5q258 0 382.5 -201t124.5 -524q0 -326 -123.5 -525.5t-383.5 -199.5t-385 200.5t-125 524.5zM301 711q0 -260 68.5 -426t251.5 -166q180 0 248.5 167t68.5 425q0 256 -70.5 425t-246.5 169t-248 -170t-72 -424zM358 1638 q0 37 28 62.5t65 25.5q39 0 66.5 -25.5t27.5 -62.5t-27.5 -62.5t-66.5 -25.5t-66 24.5t-27 63.5zM696 1638q0 37 28 62.5t64 25.5q39 0 66 -24.5t27 -63.5q0 -37 -28 -62.5t-65 -25.5q-39 0 -65.5 24.5t-26.5 63.5z" />
<glyph unicode="&#xd7;" d="M137 1040l86 82l318 -352l315 352l86 -82l-319 -358l321 -358l-86 -82l-317 352l-316 -350l-86 82l320 356z" />
<glyph unicode="&#xd8;" horiz-adv-x="1249" d="M115 705q0 326 125 525.5t385 199.5q104 0 185 -35t142 -101l109 172l61 -39l-121 -190q68 -96 101 -233.5t33 -298.5q0 -326 -124 -525.5t-386 -199.5q-104 0 -189.5 36.5t-144.5 102.5l-109 -168l-61 39l121 188q-63 94 -95 229.5t-32 297.5zM293 711q0 -104 13 -195.5 t44 -167.5l518 813q-41 76 -99 115t-144 39q-178 0 -255 -174t-77 -430zM379 260q41 -72 100.5 -111.5t145.5 -39.5q184 0 257.5 171t73.5 431q0 106 -13 193t-46 167z" />
<glyph unicode="&#xd9;" horiz-adv-x="1193" d="M158 401v1008h188v-1006q0 -129 75 -203.5t185 -74.5q109 0 183.5 74.5t74.5 203.5v1006h172v-1008q0 -182 -120.5 -303t-319.5 -121t-318.5 120t-119.5 304zM387 1794q14 35 78 35q63 0 115 -33l143 -280h-102z" />
<glyph unicode="&#xda;" horiz-adv-x="1193" d="M158 401v1008h188v-1006q0 -129 75 -203.5t185 -74.5q109 0 183.5 74.5t74.5 203.5v1006h172v-1008q0 -182 -120.5 -303t-319.5 -121t-318.5 120t-119.5 304zM500 1516l143 280q57 35 117 35q63 0 76 -37l-236 -278h-100z" />
<glyph unicode="&#xdb;" horiz-adv-x="1193" d="M158 401v1008h188v-1006q0 -129 75 -203.5t185 -74.5q109 0 183.5 74.5t74.5 203.5v1006h172v-1008q0 -182 -120.5 -303t-319.5 -121t-318.5 120t-119.5 304zM332 1556l200 207q31 31 68 31q41 0 72 -31l200 -207l-51 -43l-219 162l-219 -162z" />
<glyph unicode="&#xdc;" horiz-adv-x="1193" d="M158 401v1008h188v-1006q0 -129 75 -203.5t185 -74.5q109 0 183.5 74.5t74.5 203.5v1006h172v-1008q0 -182 -120.5 -303t-319.5 -121t-318.5 120t-119.5 304zM346 1638q0 37 27.5 62.5t64.5 25.5q39 0 66.5 -25.5t27.5 -62.5t-27.5 -62.5t-66.5 -25.5q-37 0 -64.5 26 t-27.5 62zM684 1638q0 37 27.5 62.5t64.5 25.5q39 0 66.5 -25.5t27.5 -62.5t-27.5 -62.5t-66.5 -25.5t-65.5 24.5t-26.5 63.5z" />
<glyph unicode="&#xdd;" horiz-adv-x="1024" d="M35 1409h205l280 -637l295 637h178l-387 -784v-625h-188v625zM432 1516l143 280q57 35 117 35q63 0 76 -37l-233 -278h-103z" />
<glyph unicode="&#xde;" d="M158 0v1409h186v-250q39 10 82 18.5t84 8.5q231 0 352 -120t121 -314q0 -193 -143 -305.5t-432 -112.5l-64 4v-338h-186zM344 455l57 -6q18 -2 41 -3.5t33 -1.5q162 0 244 84t82 215q0 162 -82 248t-223 86q-37 0 -76 -6t-76 -16v-600z" />
<glyph unicode="&#xdf;" horiz-adv-x="1126" d="M152 0v1087q0 221 96 380t315 159q186 0 288.5 -129t102.5 -323q0 -51 -8 -100.5t-20 -92.5q-109 -14 -164 -59t-55 -131q0 -55 30.5 -96.5t119.5 -98.5t134 -126t45 -165q0 -135 -100 -227t-250 -92q-72 0 -119 12t-86 37l39 117q25 -14 60.5 -23.5t81.5 -9.5 q86 0 140 52t54 136q0 70 -30.5 113t-115.5 96t-127 116.5t-42 147.5q0 100 59 165t162 93q8 25 12 65t4 71q0 154 -49 242.5t-166 88.5q-127 0 -179 -108.5t-52 -300.5v-1096h-180z" />
<glyph unicode="&#xe0;" horiz-adv-x="1021" d="M90 305q0 203 162 293t455 121v67q0 121 -64.5 170.5t-179.5 49.5q-74 0 -139.5 -19.5t-126.5 -50.5l-43 106q55 31 145 56.5t193 25.5q170 0 277.5 -85t107.5 -273v-709q-68 -37 -158 -57t-209 -20q-211 0 -315.5 85t-104.5 240zM262 309q0 -115 67.5 -170t194.5 -55 q115 0 183 37v506q-229 -29 -337 -95.5t-108 -222.5zM285 1503q14 35 77 35q41 0 64 -7t51 -26l144 -280h-103z" />
<glyph unicode="&#xe1;" horiz-adv-x="1021" d="M90 305q0 203 162 293t455 121v67q0 121 -64.5 170.5t-179.5 49.5q-74 0 -139.5 -19.5t-126.5 -50.5l-43 106q55 31 145 56.5t193 25.5q170 0 277.5 -85t107.5 -273v-709q-68 -37 -158 -57t-209 -20q-211 0 -315.5 85t-104.5 240zM262 309q0 -115 67.5 -170t194.5 -55 q115 0 183 37v506q-229 -29 -337 -95.5t-108 -222.5zM444 1225l144 280q57 35 119 35q61 0 73 -37l-233 -278h-103z" />
<glyph unicode="&#xe2;" horiz-adv-x="1021" d="M90 305q0 203 162 293t455 121v67q0 121 -64.5 170.5t-179.5 49.5q-74 0 -139.5 -19.5t-126.5 -50.5l-43 106q55 31 145 56.5t193 25.5q170 0 277.5 -85t107.5 -273v-709q-68 -37 -158 -57t-209 -20q-211 0 -315.5 85t-104.5 240zM242 1268l202 205q31 31 68 30 q41 0 70 -30l202 -205l-51 -45l-219 161l-219 -161zM262 309q0 -115 67.5 -170t194.5 -55q115 0 183 37v506q-229 -29 -337 -95.5t-108 -222.5z" />
<glyph unicode="&#xe3;" horiz-adv-x="1021" d="M90 305q0 203 162 293t455 121v67q0 121 -64.5 170.5t-179.5 49.5q-74 0 -139.5 -19.5t-126.5 -50.5l-43 106q55 31 145 56.5t193 25.5q170 0 277.5 -85t107.5 -273v-709q-68 -37 -158 -57t-209 -20q-211 0 -315.5 85t-104.5 240zM221 1323q20 51 54 81t100 30 q53 0 133 -40t119 -40q47 0 73.5 26.5t40.5 63.5l58 -82q-16 -45 -48.5 -73t-93.5 -36q-8 -2 -24 -2q-45 0 -131 40t-129 40q-37 0 -61.5 -27.5t-39.5 -62.5zM262 309q0 -115 67.5 -170t194.5 -55q115 0 183 37v506q-229 -29 -337 -95.5t-108 -222.5z" />
<glyph unicode="&#xe4;" horiz-adv-x="1021" d="M90 305q0 203 162 293t455 121v67q0 121 -64.5 170.5t-179.5 49.5q-74 0 -139.5 -19.5t-126.5 -50.5l-43 106q55 31 145 56.5t193 25.5q170 0 277.5 -85t107.5 -273v-709q-68 -37 -158 -57t-209 -20q-211 0 -315.5 85t-104.5 240zM260 1350q0 37 27.5 62.5t66.5 25.5 q37 0 64.5 -26t27.5 -62q0 -37 -26.5 -61.5t-65.5 -24.5t-66.5 25.5t-27.5 60.5zM262 309q0 -115 67.5 -170t194.5 -55q115 0 183 37v506q-229 -29 -337 -95.5t-108 -222.5zM598 1350q0 37 27.5 62.5t64.5 25.5q39 0 66.5 -26t27.5 -62q0 -37 -26.5 -61.5t-67.5 -24.5 q-39 0 -65.5 24.5t-26.5 61.5z" />
<glyph unicode="&#xe5;" horiz-adv-x="1021" d="M90 305q0 203 162 293t455 121v67q0 121 -64.5 170.5t-179.5 49.5q-74 0 -139.5 -19.5t-126.5 -50.5l-43 106q55 31 145 56.5t193 25.5q170 0 277.5 -85t107.5 -273v-709q-68 -37 -158 -57t-209 -20q-211 0 -315.5 85t-104.5 240zM262 309q0 -115 67.5 -170t194.5 -55 q115 0 183 37v506q-229 -29 -337 -95.5t-108 -222.5zM356 1386q0 68 48.5 116t115.5 48q70 0 118 -48t48 -116q0 -70 -48 -117.5t-118 -47.5q-68 0 -116 48t-48 117zM424 1386q0 -41 27.5 -68.5t68.5 -27.5t68.5 28t27.5 68q0 41 -27.5 69t-68.5 28t-68.5 -28t-27.5 -69z " />
<glyph unicode="&#xe6;" horiz-adv-x="1646" d="M90 303q0 197 165 292t450 122v69q0 117 -71 169.5t-185 52.5q-63 0 -131 -20.5t-119 -47.5l-41 107q57 33 140 55t185 22q115 0 196 -46t122 -152q51 100 139 149t186 49q203 0 310.5 -134t107.5 -406l-690 -103q0 -186 93 -279t241 -93q86 0 154.5 16t115.5 43l47 -113 q-55 -33 -140 -54t-194 -21q-117 0 -213 53t-153 149q-92 -203 -330 -202q-195 0 -290 85t-95 238zM254 305q0 -113 59.5 -166t169.5 -53q94 0 158 57.5t64 155.5v322q-238 -29 -344.5 -93.5t-106.5 -222.5zM846 582l526 77q0 182 -65.5 265.5t-188.5 83.5t-197.5 -105.5 t-74.5 -320.5z" />
<glyph unicode="&#xe7;" horiz-adv-x="841" d="M102 553q0 268 117 419.5t307 151.5q94 0 151.5 -21.5t92.5 -51.5l-43 -105q-29 20 -70 36.5t-94 16.5q-145 0 -211.5 -116.5t-66.5 -323.5q0 -201 70.5 -323.5t201.5 -122.5q55 0 92 13t76 40l45 -113q-35 -33 -97.5 -53t-150.5 -20q-186 0 -303 154.5t-117 418.5z M172 -401l41 69q176 0 262 13.5t86 62.5q0 43 -55 54.5t-205 11.5l41 63q61 6 111 6q129 0 186 -36t57 -97q0 -88 -127 -117.5t-397 -29.5z" />
<glyph unicode="&#xe8;" horiz-adv-x="1069" d="M102 555q0 274 122 421.5t323 147.5q203 0 311.5 -134t108.5 -406l-695 -101q0 -184 90.5 -278t245.5 -94q90 0 154.5 16t118.5 47l47 -119q-55 -33 -140.5 -54t-193.5 -21q-225 0 -358.5 144t-133.5 431zM266 580l529 79q0 182 -64.5 265.5t-189.5 83.5 q-127 0 -201 -105.5t-74 -322.5zM299 1503q14 35 78 35q41 0 63.5 -7t51.5 -26l143 -280h-103z" />
<glyph unicode="&#xe9;" horiz-adv-x="1069" d="M102 555q0 274 122 421.5t323 147.5q203 0 311.5 -134t108.5 -406l-695 -101q0 -184 90.5 -278t245.5 -94q90 0 154.5 16t118.5 47l47 -119q-55 -33 -140.5 -54t-193.5 -21q-225 0 -358.5 144t-133.5 431zM266 580l529 79q0 182 -64.5 265.5t-189.5 83.5 q-127 0 -201 -105.5t-74 -322.5zM463 1225l143 280q57 35 119 35q61 0 74 -37l-234 -278h-102z" />
<glyph unicode="&#xea;" horiz-adv-x="1069" d="M102 555q0 274 122 421.5t323 147.5q203 0 311.5 -134t108.5 -406l-695 -101q0 -184 90.5 -278t245.5 -94q90 0 154.5 16t118.5 47l47 -119q-55 -33 -140.5 -54t-193.5 -21q-225 0 -358.5 144t-133.5 431zM266 580l529 79q0 182 -64.5 265.5t-189.5 83.5 q-127 0 -201 -105.5t-74 -322.5zM272 1268l203 205q29 31 68 30q39 0 69 -30l203 -205l-53 -45l-217 161l-221 -161z" />
<glyph unicode="&#xeb;" horiz-adv-x="1069" d="M102 555q0 274 122 421.5t323 147.5q203 0 311.5 -134t108.5 -406l-695 -101q0 -184 90.5 -278t245.5 -94q90 0 154.5 16t118.5 47l47 -119q-55 -33 -140.5 -54t-193.5 -21q-225 0 -358.5 144t-133.5 431zM266 580l529 79q0 182 -64.5 265.5t-189.5 83.5 q-127 0 -201 -105.5t-74 -322.5zM287 1350q0 37 27.5 62.5t64.5 25.5q39 0 66.5 -26t27.5 -62q0 -37 -26.5 -61.5t-67.5 -24.5q-39 0 -65.5 24.5t-26.5 61.5zM625 1350q0 37 27.5 62.5t64.5 25.5q39 0 65.5 -24.5t26.5 -63.5q0 -37 -26.5 -61.5t-65.5 -24.5t-65.5 24.5 t-26.5 61.5z" />
<glyph unicode="&#xec;" horiz-adv-x="493" d="M16 1503q14 35 78 35q41 0 63.5 -7t51.5 -26l143 -280h-102zM158 0v1104h180v-1104h-180z" />
<glyph unicode="&#xed;" horiz-adv-x="493" d="M141 1225l144 280q57 35 118 35t74 -37l-233 -278h-103zM158 0v1104h180v-1104h-180z" />
<glyph unicode="&#xee;" horiz-adv-x="493" d="M-25 1268l203 205q31 31 68 30q39 0 69 -30l203 -205l-51 -45l-219 161l-219 -161zM158 0v1104h180v-1104h-180z" />
<glyph unicode="&#xef;" horiz-adv-x="493" d="M-14 1350q0 37 27.5 62.5t66.5 25.5q37 0 64.5 -26t27.5 -62q0 -37 -26.5 -61.5t-65.5 -24.5t-66.5 25.5t-27.5 60.5zM158 0v1104h180v-1104h-180zM322 1350q0 37 27.5 62.5t64.5 25.5q39 0 66.5 -26t27.5 -62q0 -37 -26.5 -61.5t-67.5 -24.5q-37 0 -64.5 25.5 t-27.5 60.5z" />
<glyph unicode="&#xf1;" horiz-adv-x="1091" d="M145 0v1047q80 39 178.5 58t229.5 19q188 0 290.5 -76.5t102.5 -242.5v-805h-180v803q0 104 -59.5 154.5t-171.5 50.5q-70 0 -115 -9.5t-94 -29.5v-969h-181zM250 1323q20 51 54 81t99 30q53 0 133 -40t119 -40q47 0 74 26.5t41 63.5l57 -82q-16 -45 -48 -73t-93 -36 q-8 -2 -24 -2q-43 0 -130.5 40t-130.5 40q-37 0 -61.5 -27.5t-36.5 -62.5z" />
<glyph unicode="&#xf2;" horiz-adv-x="1067" d="M102 551q0 260 107.5 416.5t322.5 156.5q219 0 326 -155.5t107 -417.5q0 -258 -107.5 -414.5t-322.5 -156.5t-324 157.5t-109 413.5zM281 1503q14 35 77 35t115 -33l143 -280h-100zM283 551q0 -201 54 -324t198 -123q143 0 196 124t53 323q0 203 -53 331t-196 128 t-197.5 -129t-54.5 -330z" />
<glyph unicode="&#xf3;" horiz-adv-x="1067" d="M102 551q0 260 107.5 416.5t322.5 156.5q219 0 326 -155.5t107 -417.5q0 -258 -107.5 -414.5t-322.5 -156.5t-324 157.5t-109 413.5zM283 551q0 -201 54 -324t198 -123q143 0 196 124t53 323q0 203 -53 331t-196 128t-197.5 -129t-54.5 -330zM451 1225l143 280 q57 35 119 35q61 0 73 -37l-233 -278h-102z" />
<glyph unicode="&#xf4;" horiz-adv-x="1067" d="M102 551q0 260 107.5 416.5t322.5 156.5q219 0 326 -155.5t107 -417.5q0 -258 -107.5 -414.5t-322.5 -156.5t-324 157.5t-109 413.5zM262 1268l203 205q29 31 67 30q39 0 70 -30l203 -205l-53 -45l-217 161l-222 -161zM283 551q0 -201 54 -324t198 -123q143 0 196 124 t53 323q0 203 -53 331t-196 128t-197.5 -129t-54.5 -330z" />
<glyph unicode="&#xf5;" horiz-adv-x="1067" d="M102 551q0 260 107.5 416.5t322.5 156.5q219 0 326 -155.5t107 -417.5q0 -258 -107.5 -414.5t-322.5 -156.5t-324 157.5t-109 413.5zM240 1323q31 68 66.5 89.5t88.5 21.5t133 -40t119 -40q47 0 74 26.5t41 63.5l55 -82q-14 -45 -46 -73t-93 -36q-8 -2 -25 -2 q-45 0 -131 40t-129 40q-37 0 -61.5 -27.5t-38.5 -62.5zM283 551q0 -201 54 -324t198 -123q143 0 196 124t53 323q0 203 -53 331t-196 128t-197.5 -129t-54.5 -330z" />
<glyph unicode="&#xf6;" horiz-adv-x="1067" d="M102 551q0 260 107.5 416.5t322.5 156.5q219 0 326 -155.5t107 -417.5q0 -258 -107.5 -414.5t-322.5 -156.5t-324 157.5t-109 413.5zM270 1350q0 37 28 62.5t67 25.5q37 0 64.5 -26t27.5 -62q0 -37 -26.5 -61.5t-65.5 -24.5t-67 25.5t-28 60.5zM283 551q0 -201 54 -324 t198 -123q143 0 196 124t53 323q0 203 -53 331t-196 128t-197.5 -129t-54.5 -330zM608 1350q0 37 28 62.5t64 25.5q39 0 67 -26t28 -62q0 -37 -27 -61.5t-68 -24.5q-37 0 -64.5 25.5t-27.5 60.5z" />
<glyph unicode="&#xf7;" d="M147 629v106h787v-106h-787zM438 356q0 43 29 72t74 29q43 0 71.5 -29t28.5 -72t-29.5 -72.5t-70.5 -29.5q-43 0 -73 29.5t-30 72.5zM438 1008q0 43 29 71.5t74 28.5q43 0 71.5 -28.5t28.5 -71.5t-29.5 -73t-70.5 -30q-43 0 -73 30t-30 73z" />
<glyph unicode="&#xf8;" horiz-adv-x="1071" d="M102 551q0 262 107.5 417.5t325.5 155.5q147 0 245 -80l90 156l54 -33l-95 -163q70 -76 105 -192t35 -261q0 -260 -107.5 -415.5t-324.5 -155.5q-150 0 -252 83l-92 -159l-54 33l99 169q-68 76 -102 190t-34 255zM270 553q0 -90 11.5 -165t40.5 -136l395 680 q-31 45 -77 69.5t-103 24.5q-147 0 -207 -136t-60 -337zM356 184q31 -43 76 -66.5t105 -23.5q147 0 205.5 129t58.5 330q0 92 -11 168.5t-40 142.5z" />
<glyph unicode="&#xf9;" horiz-adv-x="1071" d="M145 338v766h181v-772q0 -102 55 -165t166 -63q123 0 198 46v954h181v-1038q-68 -39 -165 -64t-224 -25q-201 0 -296.5 94.5t-95.5 266.5zM307 1503q14 35 78 35q63 0 115 -33l143 -280h-100z" />
<glyph unicode="&#xfa;" horiz-adv-x="1071" d="M145 338v766h181v-772q0 -102 55 -165t166 -63q123 0 198 46v954h181v-1038q-68 -39 -165 -64t-224 -25q-201 0 -296.5 94.5t-95.5 266.5zM457 1225l143 280q57 35 117 35q63 0 76 -37l-236 -278h-100z" />
<glyph unicode="&#xfb;" horiz-adv-x="1071" d="M145 338v766h181v-772q0 -102 55 -165t166 -63q123 0 198 46v954h181v-1038q-68 -39 -165 -64t-224 -25q-201 0 -296.5 94.5t-95.5 266.5zM266 1268l201 205q31 31 70 30q39 0 69 -30l201 -205l-51 -45l-219 161l-220 -161z" />
<glyph unicode="&#xfc;" horiz-adv-x="1071" d="M145 338v766h181v-772q0 -102 55 -165t166 -63q123 0 198 46v954h181v-1038q-68 -39 -165 -64t-224 -25q-201 0 -296.5 94.5t-95.5 266.5zM274 1350q0 37 28 62.5t65 25.5q39 0 65.5 -24.5t26.5 -63.5q0 -37 -26.5 -61.5t-65.5 -24.5t-66 24.5t-27 61.5zM610 1350 q0 37 28 62.5t67 25.5q37 0 64.5 -26t27.5 -62q0 -37 -26.5 -61.5t-65.5 -24.5t-67 25.5t-28 60.5z" />
<glyph unicode="&#xfd;" horiz-adv-x="999" d="M59 1104h193l258 -893l268 893h168l-510 -1544h-190l182 440zM426 1225l143 280q57 35 117 35q63 0 76 -37l-236 -278h-100z" />
<glyph unicode="&#xfe;" d="M145 -440v2048h179v-537q39 20 94 34.5t102 14.5q217 0 338 -145.5t121 -401.5q0 -274 -136 -430.5t-349 -156.5q-82 0 -168 24v-450h-181zM326 115q35 -8 66.5 -14.5t66.5 -6.5q180 0 261 130t81 333q0 215 -76 336t-240 121q-90 0 -159 -39v-860z" />
<glyph unicode="&#xff;" horiz-adv-x="999" d="M59 1104h193l258 -893l268 893h168l-510 -1544h-190l182 440zM250 1350q0 37 27.5 62.5t64.5 25.5q39 0 66.5 -26t27.5 -62q0 -37 -26.5 -61.5t-67.5 -24.5q-39 0 -65.5 24.5t-26.5 61.5zM588 1350q0 37 27.5 62.5t64.5 25.5q39 0 65.5 -24.5t26.5 -63.5 q0 -37 -26.5 -61.5t-65.5 -24.5t-65.5 24.5t-26.5 61.5z" />
<glyph unicode="&#x152;" horiz-adv-x="1558" d="M111 705q0 328 140 526.5t421 198.5q47 0 90 -5.5t80 -15.5h624v-127h-465v-491h420v-125h-420v-537h465v-129h-624q-27 -8 -70 -14t-98 -6q-279 0 -421 199.5t-142 525.5zM303 707q0 -246 82 -424.5t293 -178.5q45 0 84 4.5t63 10.5v1175q-63 18 -147 19 q-211 0 -293 -180.5t-82 -425.5z" />
<glyph unicode="&#x153;" horiz-adv-x="1724" d="M102 551q0 258 108.5 415.5t321.5 157.5q217 0 330 -227q55 115 145.5 171t196.5 56q207 0 312.5 -132t105.5 -417l-686 -77q20 -231 115.5 -311.5t222.5 -80.5q92 0 149.5 16.5t114.5 47.5l47 -115q-61 -37 -135 -56t-197 -19q-129 0 -227 60t-160 191 q-94 -252 -334 -251q-213 0 -321.5 157.5t-108.5 413.5zM279 553q0 -244 69.5 -347.5t183.5 -103.5q150 0 200 131.5t50 319.5q0 195 -49 326t-201 131q-150 0 -201.5 -134.5t-51.5 -322.5zM928 594l520 59q0 184 -65.5 273.5t-184.5 89.5q-125 0 -197.5 -104.5 t-72.5 -317.5z" />
<glyph unicode="&#x178;" horiz-adv-x="1024" d="M35 1409h205l280 -637l295 637h178l-387 -784v-625h-188v625zM258 1638q0 37 27.5 62.5t66.5 25.5q37 0 64.5 -25.5t27.5 -62.5t-27.5 -62.5t-64.5 -25.5q-39 0 -66.5 26t-27.5 62zM596 1638q0 37 27.5 62.5t64.5 25.5q39 0 66.5 -25.5t27.5 -62.5t-27.5 -62.5 t-66.5 -25.5t-65.5 24.5t-26.5 63.5z" />
<glyph unicode="&#x2000;" horiz-adv-x="920" />
<glyph unicode="&#x2001;" horiz-adv-x="1841" />
<glyph unicode="&#x2002;" horiz-adv-x="920" />
<glyph unicode="&#x2003;" horiz-adv-x="1841" />
<glyph unicode="&#x2004;" horiz-adv-x="613" />
<glyph unicode="&#x2005;" horiz-adv-x="460" />
<glyph unicode="&#x2006;" horiz-adv-x="306" />
<glyph unicode="&#x2007;" horiz-adv-x="306" />
<glyph unicode="&#x2008;" horiz-adv-x="230" />
<glyph unicode="&#x2009;" horiz-adv-x="368" />
<glyph unicode="&#x200a;" horiz-adv-x="102" />
<glyph unicode="&#x2010;" horiz-adv-x="704" d="M121 618v144h463v-144h-463z" />
<glyph unicode="&#x2011;" horiz-adv-x="704" d="M121 618v144h463v-144h-463z" />
<glyph unicode="&#x2012;" horiz-adv-x="704" d="M121 618v144h463v-144h-463z" />
<glyph unicode="&#x2013;" horiz-adv-x="819" d="M0 625v125h819v-125h-819z" />
<glyph unicode="&#x2014;" horiz-adv-x="1638" d="M0 633v106h1638v-106h-1638z" />
<glyph unicode="&#x2018;" horiz-adv-x="540" d="M113 1102l252 506h94l-164 -506q-16 -23 -44 -37t-69 -14q-31 0 -47 14t-22 37z" />
<glyph unicode="&#x2019;" horiz-adv-x="540" d="M82 1059l164 506q18 25 43.5 38t68.5 13q25 0 43.5 -11.5t26.5 -39.5l-252 -506h-94z" />
<glyph unicode="&#x201a;" horiz-adv-x="540" d="M82 -346l164 506q16 23 43.5 37t68.5 14q31 0 47.5 -14.5t22.5 -36.5l-252 -506h-94z" />
<glyph unicode="&#x201c;" horiz-adv-x="899" d="M113 1102l252 506h94l-164 -506q-16 -23 -44 -37t-69 -14q-31 0 -47 14t-22 37zM471 1102l252 506h94l-164 -506q-16 -20 -44.5 -35.5t-67.5 -15.5q-31 0 -48.5 15t-21.5 36z" />
<glyph unicode="&#x201d;" horiz-adv-x="899" d="M82 1059l164 506q18 25 43.5 38t68.5 13q25 0 43.5 -11.5t26.5 -39.5l-252 -506h-94zM440 1059l164 506q18 25 44 38t69 13q25 0 43 -11.5t26 -39.5l-254 -506h-92z" />
<glyph unicode="&#x201e;" horiz-adv-x="899" d="M82 -346l164 506q16 23 43.5 37t68.5 14q31 0 47.5 -14.5t22.5 -36.5l-252 -506h-94zM440 -346l164 506q16 23 44 37t69 14q31 0 47 -14.5t22 -36.5l-254 -506h-92z" />
<glyph unicode="&#x2022;" horiz-adv-x="663" d="M139 729q0 80 56.5 136.5t136.5 56.5t136 -56.5t56 -136.5t-56 -136t-136 -56t-136.5 56t-56.5 136z" />
<glyph unicode="&#x2026;" horiz-adv-x="1716" d="M168 109q0 49 35 83.5t84 34.5q47 0 81.5 -34.5t34.5 -83.5q0 -47 -34.5 -82t-81.5 -35q-49 0 -84 32.5t-35 84.5zM739 109q0 49 35 83.5t84 34.5q47 0 82 -34.5t35 -83.5t-34 -83t-83 -34t-84 32.5t-35 84.5zM1311 109q0 49 34.5 83.5t84.5 34.5q49 0 83.5 -34.5 t34.5 -83.5q0 -47 -34.5 -82t-83.5 -35t-84 32.5t-35 84.5z" />
<glyph unicode="&#x202f;" horiz-adv-x="368" />
<glyph unicode="&#x2039;" horiz-adv-x="675" d="M123 684l309 446l96 -63l-262 -383l262 -383l-96 -63z" />
<glyph unicode="&#x203a;" horiz-adv-x="675" d="M147 301l261 383l-261 383l97 63l309 -446l-309 -446z" />
<glyph unicode="&#x205f;" horiz-adv-x="460" />
<glyph unicode="&#x2122;" horiz-adv-x="1601" d="M94 1331v78h498v-78h-197v-633h-102v633h-199zM641 698l92 711h144l174 -608l172 608h145l90 -711h-98l-74 621l-188 -621h-97l-190 621l-70 -621h-100z" />
<glyph unicode="&#xe000;" horiz-adv-x="1105" d="M0 0v1106h1106v-1106h-1106z" />
</font>
</defs>
</svg>
