<?xml version="1.0" standalone="no"?>
<!DOCTYPE svg PUBLIC "-//W3C//DTD SVG 1.1//EN" "http://www.w3.org/Graphics/SVG/1.1/DTD/svg11.dtd" >
<svg xmlns="http://www.w3.org/2000/svg">
<metadata></metadata>
<defs>
<font id="daxlight" horiz-adv-x="1044" >
<font-face units-per-em="2048" ascent="1638" descent="-410" />
<missing-glyph horiz-adv-x="573" />
<glyph horiz-adv-x="2048" />
<glyph horiz-adv-x="2048" />
<glyph unicode="&#xd;" horiz-adv-x="573" />
<glyph unicode=" "  horiz-adv-x="573" />
<glyph unicode="&#x09;" horiz-adv-x="573" />
<glyph unicode="&#xa0;" horiz-adv-x="573" />
<glyph unicode="!" horiz-adv-x="550" d="M215 79q0 36 25.5 61.5t60.5 25.5t60.5 -25.5t25.5 -61.5t-25.5 -61.5t-60.5 -25.5t-60.5 25.5t-25.5 61.5zM236 1409h129l-25 -969h-80z" />
<glyph unicode="&#x22;" horiz-adv-x="727" d="M154 1395q25 31 62.5 31t62.5 -31l-35 -484h-58zM449 1395q25 31 62 31t62 -31l-34 -484h-58z" />
<glyph unicode="#" d="M49 483v64h238l65 352h-227v62h240l77 448h72l-80 -448h260l78 448h72l-80 -448h231v-62h-241l-66 -352h232v-62h-244l-84 -485h-70l84 485h-258l-90 -485h-68l86 483h-227zM358 547h258l66 352h-260z" />
<glyph unicode="$" d="M164 57l35 76q111 -68 250 -67.5t223 87.5t84 212t-63.5 195.5t-209.5 123.5q-307 111 -307 371q0 145 92 251.5t244 120.5l-16 230h82l-17 -230q154 -2 252 -71l-31 -72q-109 66 -231.5 66t-193 -80t-70.5 -207t80 -197q53 -49 178 -94q323 -119 323 -387 q0 -166 -99 -275.5t-257 -125.5l16 -242h-86l17 240q-184 2 -295 75z" />
<glyph unicode="%" horiz-adv-x="1714" d="M154 952q0 479 258 480q258 -1 258 -480t-258 -479t-258 479zM236 958q0 -422 176 -421q172 -1 174 421t-174 422t-176 -422zM584 8l477 1413l63 -20l-475 -1415zM1044.5 456.5q1.5 479.5 257 479.5t259.5 -479t-258 -480q-260 0 -258.5 479.5zM1128.5 461 q1.5 -422 173 -422t177.5 422t-176 422q-176 0 -174.5 -422z" />
<glyph unicode="&#x26;" horiz-adv-x="1236" d="M121 364q0 167 103.5 278.5t289.5 162.5v4q-303 70 -303 317q0 131 97.5 217.5t252.5 86.5t266 -70l-30 -66q-90 59 -211 60q-262 0 -262 -230q0 -117 86 -186.5t211 -69.5q246 0 534 160l31 -78q-98 -47 -230 -82v-811q-111 -78 -338 -77.5t-362 109t-135 275.5z M242 383q0 -152 98 -240t262 -88t246 37v746q-334 -80 -461 -170q-145 -102 -145 -285z" />
<glyph unicode="'" horiz-adv-x="434" d="M154 1395q25 31 63 30q39 1 64 -30l-35 -484h-60z" />
<glyph unicode="(" horiz-adv-x="706" d="M153.5 585q0.5 493 413.5 1043l58 -37q-346 -489 -346 -1006.5t346 -1006.5l-58 -37q-414 551 -413.5 1044z" />
<glyph unicode=")" horiz-adv-x="706" d="M82 -422q346 489 346 1006.5t-346 1006.5l57 37q414 -550 414 -1043t-414 -1044z" />
<glyph unicode="*" horiz-adv-x="823" d="M113 1396q0 30 21.5 51t51 21t51 -21t21.5 -51t-21.5 -51.5t-51.5 -21.5t-51 21.5t-21 51.5zM184 1135q0 31 21.5 52t51.5 21t51.5 -21t21.5 -52t-21.5 -51.5t-50.5 -20.5q-74 0 -74 72zM340 1556q0 31 21.5 52.5t51.5 21.5t51 -21.5t21 -52.5q0 -72 -73 -71 q-29 0 -50.5 20.5t-21.5 50.5zM346 1321q0 27 19.5 46t46.5 19q65 1 65 -65t-65 -66q-27 0 -46.5 19.5t-19.5 46.5zM492 1134q0 30 21.5 51t51 21t51 -21t21.5 -51t-21.5 -51.5t-51.5 -21.5t-51 21.5t-21 51.5zM565 1394q0 30 21.5 51t51.5 21t51.5 -21t21.5 -51 t-21.5 -51.5t-51.5 -21.5t-51.5 21.5t-21.5 51.5z" />
<glyph unicode="+" d="M139 645v84h340v375h84v-375h342v-84h-342v-377h-84v377h-340z" />
<glyph unicode="," horiz-adv-x="493" d="M37 -346l166 463q35 31 82 31t55 -31l-238 -463h-65z" />
<glyph unicode="-" horiz-adv-x="692" d="M133 643v98h426v-98h-426z" />
<glyph unicode="." horiz-adv-x="479" d="M154 82q0 35 25.5 60.5t60.5 25.5t60.5 -25.5t25.5 -60.5t-26 -60.5t-60 -25.5q-35 0 -60.5 25.5t-25.5 60.5z" />
<glyph unicode="/" horiz-adv-x="1134" d="M41 -422l973 2050l80 -37l-975 -2052z" />
<glyph unicode="0" d="M123 705q0 293 78 479q102 246 321 246t322 -246q78 -186 78 -479t-78 -480q-102 -246 -322 -245q-219 0 -321 245q-78 186 -78 480zM231 710q0 -652 291 -653q291 1 291 653t-291 652t-291 -652z" />
<glyph unicode="1" d="M184 1190q315 43 428 219h72v-1409h-111v1237q-137 -88 -374 -115z" />
<glyph unicode="2" d="M94 0l504 713q139 197 139 350q0 281 -321 280q-141 0 -250 -61l-35 74q137 74 318.5 74t296 -97.5t114.5 -261.5t-172 -399l-424 -580h617v-92h-787z" />
<glyph unicode="3" d="M106 49l33 78q104 -63 267.5 -63.5t256.5 89t93 244.5q0 203 -164 287q-115 59 -268 47v72q164 12 269 94t105 209t-76 184t-186 58q-168 0 -264 -58l-35 70q127 70 293 70t268 -78q115 -84 115 -225.5t-108 -239.5q-74 -68 -173 -99v-4q137 -29 224 -108 q116 -105 116 -286t-124.5 -295.5t-324.5 -114.5t-317 69z" />
<glyph unicode="4" d="M121 342v82l581 985h101v-993h119v-74h-119v-342h-98v342h-584zM207 416h498v663q0 103 2 203h-5q-23 -43 -106 -192z" />
<glyph unicode="5" d="M127 51l31 76q119 -66 262 -66t242 82q111 96 110 252q0 358 -401 359q-80 0 -174 -15l49 670h616v-92h-536l-35 -500q70 10 133 10q223 0 344 -117.5t121 -300t-125 -306.5t-321.5 -123.5t-315.5 71.5z" />
<glyph unicode="6" d="M127 504q0 416 266 680q168 166 389 235l31 -73q-416 -150 -551 -562q111 45 223 45q199 0 320 -111.5t121 -299t-102 -313t-294 -125.5q-193 0 -298 136t-105 388zM233 504q0 -444 302 -445q141 0 211.5 101t70.5 246q0 354 -342 354q-127 0 -223 -43q-18 -90 -19 -213z " />
<glyph unicode="7" d="M141 1317v92h813l-194 -442q-252 -573 -365 -967h-143l569 1317h-680z" />
<glyph unicode="8" d="M123 324q0 121 72.5 216t250.5 197q-156 86 -217 169t-61 211t104.5 220.5t249.5 92.5t250 -92.5t105 -219.5t-62 -207q-61 -86 -215 -170q178 -102 250 -199t72 -231t-115 -232.5t-281 -98.5t-284.5 93t-118.5 251zM225.5 322.5q-0.5 -117.5 86.5 -190.5t212 -73t208 75 t83 190t-59 195.5t-236 178.5q-176 -98 -235 -178t-59.5 -197.5zM266 1107q0 -107 55.5 -175t204.5 -152q145 80 198.5 150t53.5 176.5t-71.5 178t-184.5 71.5t-184.5 -71t-71.5 -178z" />
<glyph unicode="9" d="M119 980q0 187 94 306q109 133 301 133q193 0 298.5 -136t105.5 -388q0 -416 -267 -680q-168 -166 -389 -235l-31 73q418 150 549 561q-106 -45 -223 -45q-197 0 -317.5 112t-120.5 299zM227 995q0 -354 342 -354q127 0 224 43q18 92 18 213q0 446 -301 446 q-141 0 -212 -101t-71 -247z" />
<glyph unicode=":" horiz-adv-x="479" d="M154 82q0 35 25.5 60.5t60.5 25.5t60.5 -25.5t25.5 -60.5t-26 -60.5t-60 -25.5q-35 0 -60.5 25.5t-25.5 60.5zM154 705q0 35 25.5 60.5t60.5 25.5t60.5 -25.5t25.5 -60.5t-26 -61t-60 -26q-35 0 -60.5 26t-25.5 61z" />
<glyph unicode=";" horiz-adv-x="493" d="M37 -346l166 463q37 37 85 37t52 -37l-238 -463h-65zM166 705q0 35 25.5 60.5t61.5 25.5t61.5 -25.5t25.5 -60.5t-25.5 -61t-61.5 -26t-61.5 26t-25.5 61z" />
<glyph unicode="&#x3c;" d="M139 653v82l766 346v-92l-669 -295l669 -295v-90z" />
<glyph unicode="=" d="M139 477v84h766v-84h-766zM139 809v84h766v-82z" />
<glyph unicode="&#x3e;" d="M139 309v90l670 295l-670 295v92l766 -346v-82z" />
<glyph unicode="?" horiz-adv-x="749" d="M92 1350q111 74 270.5 73.5t258 -87.5t98.5 -222t-105 -231q-84 -80 -188 -109l-23 -334h-79l-27 373q117 29 199 90q111 82 110.5 195t-67 177.5t-195.5 64t-215 -55.5zM279 80q0 35 25.5 60.5t60.5 25.5t60.5 -25.5t25.5 -60.5t-26 -60.5t-60 -25.5q-35 0 -60.5 25.5 t-25.5 60.5z" />
<glyph unicode="@" horiz-adv-x="1783" d="M152 449q0 397 265 690t636 293q258 0 418.5 -157t160.5 -429q0 -231 -110 -453q-131 -262 -326 -262q-135 0 -137 201q-109 -197 -326 -197q-111 0 -169 89t-58 222q0 184 104 359q119 201 291 201q190 0 242 -213l35 178h77l-61 -289q-57 -270 -57 -349t21.5 -109.5 t74.5 -30.5q121 0 229 224t108.5 448.5t-143 369.5t-376.5 145q-352 0 -593 -281t-241 -653q0 -328 184.5 -501.5t497.5 -173.5q219 0 369.5 69.5t298.5 231.5l30 -39q-139 -164 -303 -240t-395 -76q-344 0 -546 191t-201 541zM592 453q0 -104 47 -180t143 -76 q147 0 242 178q80 147 84 289.5t-56 212t-139 69.5q-147 0 -243 -182q-78 -152 -78 -311z" />
<glyph unicode="A" horiz-adv-x="1169" d="M53 0l488 1409h92l483 -1409h-121l-155 481h-516l-160 -481h-111zM348 557h467l-184 569q-35 109 -43 172h-4l-49 -170z" />
<glyph unicode="B" horiz-adv-x="1112" d="M170 55v1299q123 76 331 76t325.5 -94.5t117.5 -243t-85 -234.5t-202 -106v-4q121 -16 224 -109q123 -108 123 -262q0 -203 -134.5 -300t-351.5 -97t-348 75zM279 98q104 -39 233 -39q373 1 373 308q0 184 -119 266t-379 82h-108v-617zM279 776h108q240 0 342 73.5 t102 227.5q0 281 -333 281q-123 0 -219 -35v-547z" />
<glyph unicode="C" horiz-adv-x="966" d="M121 702.5q0 311.5 140 519.5t372 208q160 0 262 -74l-35 -70q-86 61 -211 62q-207 0 -313 -199q-92 -170 -92 -444t94 -447q108 -192 307 -192h2q115 0 213 59l35 -70q-91 -75 -256 -75h-4q-231 0 -372.5 205.5t-141.5 517z" />
<glyph unicode="D" horiz-adv-x="1193" d="M170 53v1301q127 76 344 76q264 0 411.5 -185.5t147.5 -526.5t-141 -540q-140 -198 -411 -198h-3q-238 0 -348 73zM287 98q80 -35 215 -35q448 1 448 660q0 633 -452 633q-127 0 -211 -33v-1225z" />
<glyph unicode="E" horiz-adv-x="886" d="M170 0v1409h621v-80h-504v-557h456v-80h-456v-612h504v-80h-621z" />
<glyph unicode="F" horiz-adv-x="870" d="M170 0v1409h616v-80h-499v-557h454v-80h-454v-692h-117z" />
<glyph unicode="G" horiz-adv-x="1181" d="M121 708q0 355 176 549q156 172 374 173h3q216 0 317 -70l-35 -72q-104 59 -262 60q-213 0 -331.5 -163t-118.5 -474.5t129 -481.5t321 -170q135 0 213 41v592h-274v80h391v-717q-126 -76 -343 -76q-2 0 -3 1q-219 0 -377 174q-180 199 -180 554z" />
<glyph unicode="H" horiz-adv-x="1189" d="M170 0v1409h117v-637h616v637h117v-1409h-117v692h-616v-692h-117z" />
<glyph unicode="I" horiz-adv-x="473" d="M178 0v1409h117v-1409h-117z" />
<glyph unicode="J" horiz-adv-x="473" d="M-96 -367q119 39 196.5 144t77.5 262v1370h117v-1370q0 -199 -115 -328t-276 -162v84z" />
<glyph unicode="K" horiz-adv-x="989" d="M178 0v1409h113v-661h4l504 661h125l-525 -659l545 -750h-135l-514 743h-4v-743h-113z" />
<glyph unicode="L" horiz-adv-x="819" d="M178 0v1409h117v-1329h457v-80h-574z" />
<glyph unicode="M" horiz-adv-x="1585" d="M123 0l176 1409h137l316 -1135q25 -88 36 -159h5q-82 463 -115 615.5t-33 158.5q72 -270 182 -615l320 1135h137l178 -1409h-110l-129 1178q-8 80 -11 161h-4q-8 -37 -39 -161l-327 -1178h-105l-325 1178q-20 76 -37 161h-4q-2 -39 -13 -159l-131 -1180h-104z" />
<glyph unicode="N" horiz-adv-x="1318" d="M170 0v1409h149l650 -1122q49 -86 84 -158h6q-8 74 -8 164v1116h98v-1409h-119l-665 1145q-51 90 -99 184h-4q6 -98 6 -186v-1143h-98z" />
<glyph unicode="O" horiz-adv-x="1218" d="M120 701q0 328 120 529q120 200 369 200t376 -211q113 -190 113 -516t-113 -513q-126 -210 -375 -210h-2q-250 0 -375 210q-113 187 -113 511zM237 711q1 -643 373 -643t372 639q0 643 -373 643q-372 0 -372 -639z" />
<glyph unicode="P" horiz-adv-x="1026" d="M170 0v1354q125 76 329.5 76t319.5 -110.5t115 -298t-122 -303.5t-366 -116q-43 0 -90 4l-71 6v-612h-115zM285 688l67 -6q45 -4 84 -4q383 0 383 342q0 336 -348 336q-111 0 -186 -33v-635z" />
<glyph unicode="Q" horiz-adv-x="1218" d="M121 703v6q0 324 112 510q127 211 377 211t377 -211q111 -186 111 -510q0 -502 -281 -678l256 -326l-92 -84l-225 387q-63 -20 -146 -20q-250 0 -377 211q-112 184 -112 504zM237 713q0 -641 373 -641t373 639t-373 639t-373 -637z" />
<glyph unicode="R" horiz-adv-x="1058" d="M176 0v1356q115 74 321.5 74t321.5 -106.5t115 -303.5q0 -198 -127 -302q-117 -96 -317 -96q-17 0 -35 1v-5l506 -618h-138l-528 676h-6v-676h-113zM289 696q53 -16 145 -16q385 0 385 339t-338 339q-121 0 -192 -37v-625z" />
<glyph unicode="S" horiz-adv-x="933" d="M100 55l37 82q103 -68 245 -68q0 1 2 1q144 0 227 85t83 208.5t-63.5 193.5t-208.5 125q-307 115 -307 373q0 156 102 265.5t269 109.5t270 -74l-33 -76q-100 68 -227 68t-197 -79t-70 -212q0 -190 256 -285q326 -119 326 -387q0 -180 -113.5 -292.5t-296.5 -112.5 t-301 75z" />
<glyph unicode="T" horiz-adv-x="833" d="M61 1329v80h711v-80h-297v-1329h-117v1329h-297z" />
<glyph unicode="U" horiz-adv-x="1167" d="M170 395v1014h117v-1014q0 -147 89 -235t214 -88t214 88t89 235v1014h104v-1014q0 -176 -111.5 -297t-301.5 -121t-302 121t-112 297z" />
<glyph unicode="V" d="M66 1409h124l291 -1077q23 -86 47 -193h4q12 49 50 191l292 1079h111l-405 -1409h-101z" />
<glyph unicode="W" horiz-adv-x="1648" d="M90 1409h125l231 -1116q16 -76 29 -162h4q6 39 33 162l270 1116h99l268 -1116q16 -70 31 -162h4q6 43 28 162l242 1116h111l-336 -1409h-103l-266 1104q-20 82 -31 162h-4l-28 -162l-271 -1104h-100z" />
<glyph unicode="X" horiz-adv-x="1024" d="M66 0l389 729l-344 680h129l272 -586h4l301 586h107l-353 -668l387 -741h-133l-313 645h-4l-326 -645h-116z" />
<glyph unicode="Y" horiz-adv-x="991" d="M51 1409h129l320 -690h4l330 690h112l-391 -768v-641h-115v641z" />
<glyph unicode="Z" horiz-adv-x="847" d="M57 0l557 1329h-532v80h680l-553 -1329h571v-80h-723z" />
<glyph unicode="[" horiz-adv-x="677" d="M174 -440v2048h391v-70h-289v-1907h289v-71h-391z" />
<glyph unicode="\" horiz-adv-x="1146" d="M41 1587l84 43l981 -2050l-84 -41z" />
<glyph unicode="]" horiz-adv-x="677" d="M113 -369h288v1907h-288v70h391v-2048h-391v71z" />
<glyph unicode="^" horiz-adv-x="1146" d="M209 1006l289 374q35 45 75 45q41 0 76 -45l289 -374l-35 -37l-330 379l-329 -379z" />
<glyph unicode="_" d="M-20 -301h1085v-78h-1085v78z" />
<glyph unicode="`" horiz-adv-x="348" d="M-20 1503q8 29 51 29t88 -29l145 -274h-65z" />
<glyph unicode="a" horiz-adv-x="978" d="M100 295q0 205 179 307q143 84 438 113v76q0 253 -266 253h-2q-131 0 -256 -71l-31 71q139 80 297 80t260.5 -78.5t101.5 -257.5v-731q-129 -77 -329 -77h-5q-387 0 -387 315zM209 295q0 -248 293 -248q131 0 215 45v557q-268 -35 -375 -100q-133 -80 -133 -254z" />
<glyph unicode="b" horiz-adv-x="1034" d="M158 55v1553h108v-547q100 55 236 55q188 0 304 -149.5t116 -407.5t-122 -419q-121 -160 -344 -160h-3q-184 0 -295 75zM266 90q66 -33 183 -33q362 0 362 508q0 207 -85 345t-247 139q-123 0 -213 -50v-909z" />
<glyph unicode="c" horiz-adv-x="833" d="M113 555q0 262 111.5 415.5t297.5 153.5q141 0 230 -69l-31 -70q-76 57 -182 57q-313 0 -314 -483q0 -223 80 -358t227 -135q104 0 187 59l33 -76q-81 -70 -246 -70q-1 1 -2 1q-166 0 -278.5 156.5t-112.5 418.5z" />
<glyph unicode="d" horiz-adv-x="1034" d="M112 541q0 262 130 417q129 154 348 154q84 0 178 -27v523h109v-1553q-110 -76 -318 -76q-1 1 -3 1q-210 0 -327 151q-117 150 -117 410zM223 541q0 -217 87 -350t270 -134q135 0 188 37v928q-77 22 -155 22h-7q-203 0 -301 -157q-82 -129 -82 -346z" />
<glyph unicode="e" horiz-adv-x="1038" d="M113 547q0 287 117 432t300 145q396 0 396 -516l-709 -104q25 -438 371 -438q154 0 264 65l35 -80q-114 -72 -313 -72q0 1 -2 1q-200 0 -322 133q-137 147 -137 434zM215 571l602 93q0 378 -287 378h-2q-141 0 -223 -108q-90 -123 -90 -363z" />
<glyph unicode="f" horiz-adv-x="591" d="M88 1038v66h129v176q0 147 81 237.5t234 90.5v-70q-205 -18 -204 -240v-194h204v-64h-204v-1040h-111v1038h-129z" />
<glyph unicode="g" horiz-adv-x="1034" d="M113 541q0 260 121.5 421.5t347.5 161.5q184 0 295 -73v-1082q0 -199 -102.5 -314.5t-294.5 -115.5t-304 72l43 78q111 -66 248 -66q303 0 303 330v86q-86 -55 -233 -55q-197 0 -310.5 148.5t-113.5 408.5zM223 535q0 -479 342 -480q119 1 205 54v909q-66 37 -186 37 q-182 0 -271.5 -139.5t-89.5 -380.5z" />
<glyph unicode="h" horiz-adv-x="1046" d="M158 0v1608h110v-572q137 76 262 76q190 0 285 -104q74 -84 74 -213v-795h-111v791q0 247 -252 247h-2q-139 0 -256 -69v-969h-110z" />
<glyph unicode="i" horiz-adv-x="454" d="M154 1413q0 31 21.5 52.5t51.5 21.5q31 0 52.5 -21.5t21.5 -52.5t-21.5 -52.5t-52.5 -21.5t-52 21.5t-21 52.5zM172 0v1104h111v-1104h-111z" />
<glyph unicode="j" horiz-adv-x="460" d="M-35 -379q213 86 213 412v1071h111v-1069q0 -207 -97.5 -334t-226.5 -154v74zM160 1413q0 31 21.5 52.5t51.5 21.5q31 0 52.5 -21.5t21.5 -52.5t-21.5 -52.5t-52.5 -21.5t-52 21.5t-21 52.5z" />
<glyph unicode="k" horiz-adv-x="901" d="M170 0v1608h106v-1028h5l434 524h123l-455 -526l498 -578h-129l-471 575h-5v-575h-106z" />
<glyph unicode="l" horiz-adv-x="458" d="M174 0v1608h111v-1608h-111z" />
<glyph unicode="m" horiz-adv-x="1669" d="M158 0v1047q142 78 356 78q1 -1 3 -1q216 0 323 -143q133 143 321 143t279 -108q72 -84 71 -207v-809h-110v805q0 242 -242 242q-160 0 -268 -121v-926h-111v815q0 106 -71.5 170t-207.5 64t-233 -45v-1004h-110z" />
<glyph unicode="n" horiz-adv-x="1046" d="M158 0v1047q144 78 352 78q1 -1 3 -1q210 0 304 -106q72 -84 72 -209v-809h-111v803q0 246 -264 246q-139 0 -246 -45v-1004h-110z" />
<glyph unicode="o" horiz-adv-x="1032" d="M113 552.5q0 260.5 94 408.5q102 164 308 164l1 -1q207 0 305.5 -155.5t98.5 -415.5t-93 -408q-104 -166 -309 -166l-1 1q-206 0 -310 165q-94 147 -94 407.5zM223 556.5q0 -496.5 295 -497.5q291 1 291 497.5t-293 496.5t-293 -496.5z" />
<glyph unicode="p" horiz-adv-x="1034" d="M158 -440v1489q115 75 300 75h5q219 0 339 -150.5t120 -414t-129 -419.5t-351 -156q-96 0 -176 28v-452h-108zM266 82q72 -27 158 -27q188 0 287.5 134t99.5 374q0 492 -356 492q-117 0 -189 -39v-934z" />
<glyph unicode="q" horiz-adv-x="1034" d="M113 541q0 260 121.5 421.5t347.5 161.5q184 0 295 -73v-1491h-107v479q-86 -55 -233 -55q-197 0 -310.5 148.5t-113.5 408.5zM223 535q0 -479 342 -480q119 1 205 54v909q-66 37 -186 37q-182 0 -271.5 -139.5t-89.5 -380.5z" />
<glyph unicode="r" horiz-adv-x="620" d="M158 0v1047q84 43 165.5 60t249.5 17l-32 -96q-51 14 -105 14q-106 0 -168 -45v-997h-110z" />
<glyph unicode="s" horiz-adv-x="804" d="M88 57l33 78q77 -66 203 -66l2 1q126 0 193 64.5t67 159.5t-49.5 147t-155.5 91q-262 96 -262 310q0 117 86 200.5t225 83.5t229 -73l-32 -72q-88 66 -190.5 66t-159 -58.5t-56.5 -146.5q0 -147 205 -221q270 -99 270 -326q0 -121 -98 -216t-255 -95t-255 73z" />
<glyph unicode="t" horiz-adv-x="612" d="M88 1038v66h129v264l111 41v-305h204v-64h-204v-794q0 -174 159 -174q31 0 45 4v-72q-31 -10 -69 -10q-127 0 -186.5 77t-59.5 181v786h-129z" />
<glyph unicode="u" horiz-adv-x="1024" d="M158 324v780h110v-776q0 -123 66 -196t198.5 -73t223.5 54v991h110v-1036q-143 -90 -352 -91q-356 0 -356 347z" />
<glyph unicode="v" horiz-adv-x="964" d="M74 1104h121l270 -871q20 -66 27 -116h4q4 25 28 116l273 871h100l-360 -1104h-91z" />
<glyph unicode="w" horiz-adv-x="1546" d="M86 1104h117l223 -871q18 -70 23 -116h4q-10 49 -7 59q16 29 33 57l254 871h101l245 -871q14 -51 25 -116h4q4 31 25 119l229 868h104l-319 -1104h-88l-254 885q-18 61 -23 116h-4q-2 -27 -24 -116l-260 -885h-88z" />
<glyph unicode="x" horiz-adv-x="919" d="M68 0l338 571l-302 533h117l240 -447h4l246 447h106l-305 -520l340 -584h-121l-270 496h-4l-275 -496h-114z" />
<glyph unicode="y" horiz-adv-x="964" d="M74 1104h121l266 -871q18 -61 26 -122h5q4 29 30 122l275 871h100l-512 -1544h-123l184 440z" />
<glyph unicode="z" horiz-adv-x="831" d="M68 0l507 1038h-475v66h623l-504 -1038h524v-66h-675z" />
<glyph unicode="{" horiz-adv-x="722" d="M123 637v68q86 6 116.5 68.5t30.5 215.5v332q0 287 330 287v-70q-229 0 -229 -219v-397q0 -211 -156 -250v-4q156 -39 156 -248v-400q0 -219 229 -219v-67q-330 0 -330 284v334q0 154 -30.5 216.5t-116.5 68.5z" />
<glyph unicode="|" horiz-adv-x="446" d="M174 -440v2048h98v-2048h-98z" />
<glyph unicode="}" horiz-adv-x="722" d="M123 -199q229 0 229 219v400q0 209 156 248v4q-156 39 -156 250v397q0 219 -229 219v70q330 0 330 -287v-332q0 -154 30.5 -216t116.5 -68v-68q-86 -6 -116.5 -68.5t-30.5 -216.5v-334q0 -285 -330 -284v67z" />
<glyph unicode="~" horiz-adv-x="1146" d="M182 614q59 147 187 162q86 10 195.5 -61.5t166.5 -71.5q124 0 176 137l58 -61q-49 -162 -224 -162q-61 0 -172 71t-186 60q-92 -12 -150 -131z" />
<glyph unicode="&#xa1;" horiz-adv-x="550" d="M215 889q0 35 25.5 60.5t60.5 25.5t60.5 -25.5t25.5 -60.5t-25.5 -60.5t-60.5 -25.5t-60.5 25.5t-25.5 60.5zM236 -440l24 968h80l25 -968h-129z" />
<glyph unicode="&#xa2;" d="M184 698q0 213 96.5 343t258.5 149l-17 217h92l-12 -215q143 -2 217 -59l-28 -62q-82 47 -183 47q-160 0 -241 -119q-74 -104 -74 -292t80 -301t231 -113q104 0 184 47l31 -68q-72 -57 -221 -59l12 -211h-90l15 213q-162 16 -256.5 143t-94.5 340z" />
<glyph unicode="&#xa3;" d="M119 692v68h176q-53 180 -53 303q0 160 112.5 263.5t287.5 103.5t271 -70l-34 -72q-106 57 -244 57.5t-210.5 -88t-72.5 -221.5t45 -276h277v-68h-262q55 -222 -25 -446q-39 -102 -74 -154h627v-92h-788q190 233 190 485q0 76 -29 207h-194z" />
<glyph unicode="&#xa4;" d="M92 322l150 149q-78 98 -78 226t78 225l-150 149l55 55l150 -149q98 78 226 78t225 -80l149 151l55 -55l-149 -151q78 -96 78 -224q0 -127 -78 -225l149 -149l-55 -56l-149 150q-100 -80 -226 -80q-125 0 -225 80l-150 -150zM240 695q0 -118 83 -199.5t199 -81.5 q117 0 200 81.5t83 199.5t-83 201t-200 83t-199.5 -83t-82.5 -201z" />
<glyph unicode="&#xa5;" d="M78 1409h125l321 -707h4l330 707h109l-254 -506l233 15v-72l-252 18l-112 -223l364 14v-73l-368 20l2 -602h-111v602l-373 -20v73l369 -14l-115 223l-254 -18v72l236 -15z" />
<glyph unicode="&#xa6;" horiz-adv-x="446" d="M174 365h98v-805h-98v805zM174 803v805h98v-805h-98z" />
<glyph unicode="&#xa7;" d="M168 553q0 201 248 354q-131 123 -131 267q0 104 78.5 176.5t211.5 72.5t218 -67l-33 -64q-88 55 -181.5 55.5t-146.5 -45t-53 -128.5q0 -123 158 -256l147 -125q113 -94 155 -171.5t42 -181.5q0 -195 -250 -344q154 -133 153 -278q0 -119 -89 -198t-226 -79t-240 72 l37 74q80 -66 180.5 -66t166 50t65.5 124.5t-25 123t-106 118.5l-205 172q-102 86 -138 165t-36 179zM264 569q0 -166 156 -297l155 -131q203 129 203 281q0 92 -28.5 154.5t-114.5 136.5l-170 145q-201 -123 -201 -289z" />
<glyph unicode="&#xa8;" horiz-adv-x="348" d="M-49 1348q0 29 20.5 49t48 20t48 -20t20.5 -49t-19.5 -49.5t-48.5 -20.5q-70 0 -69 70zM258 1348q0 29 20.5 49t48.5 20t48 -20t20 -49q0 -70 -69 -70q-29 0 -48.5 20.5t-19.5 49.5z" />
<glyph unicode="&#xa9;" horiz-adv-x="1712" d="M133 702q0 299 212 511t511 212t511 -212t212 -511t-212 -509.5t-511 -210.5t-511 210.5t-212 509.5zM203 702q0 -270 191.5 -460.5t461.5 -190.5t461.5 190.5t191.5 460.5t-191.5 462t-461.5 192t-461.5 -191.5t-191.5 -462.5zM430 707.5q0 179.5 126 306.5t315.5 127 t318.5 -158l-53 -49q-109 135 -266.5 135t-263 -106.5t-105.5 -255.5q0 -150 105.5 -255.5t262 -105.5t265.5 129l57 -45q-125 -156 -317.5 -156t-318.5 127t-126 306.5z" />
<glyph unicode="&#xaa;" horiz-adv-x="696" d="M94 924q0 129 123 188q86 41 289 62v45q0 145 -170 145q-86 0 -164 -41l-25 53q82 47 197 47q240 0 240 -202v-443q-88 -49 -221.5 -49t-201 53.5t-67.5 141.5zM174 924q0 -141 197 -142q86 0 135 25v315q-178 -23 -244 -55q-88 -43 -88 -143z" />
<glyph unicode="&#xab;" horiz-adv-x="1019" d="M143 684l312 426l57 -45l-270 -381l270 -381l-57 -45zM485 684l312 426l59 -45l-274 -381l274 -381l-59 -45z" />
<glyph unicode="&#xac;" d="M139 651v82h766v-420h-88v338h-678z" />
<glyph unicode="&#xad;" horiz-adv-x="692" d="M133 643v98h426v-98h-426z" />
<glyph unicode="&#xae;" horiz-adv-x="1712" d="M133 702q0 299 212 511t511 212t511 -212t212 -511t-212 -509.5t-511 -210.5t-511 210.5t-212 509.5zM203 702q0 -270 191.5 -460.5t461.5 -190.5t461.5 190.5t191.5 460.5t-191.5 462t-461.5 192t-461.5 -191.5t-191.5 -462.5zM641 276v852q78 39 191 39t188 -55 q90 -63 90 -179t-76 -177.5t-196 -61.5l305 -418h-88l-301 416h-37v-416h-76zM717 745h88q94 0 160.5 45.5t66.5 137.5t-63 134t-132 42t-120 -19v-340z" />
<glyph unicode="&#xaf;" horiz-adv-x="348" d="M-96 1294v74h540v-74h-540z" />
<glyph unicode="&#xb0;" horiz-adv-x="866" d="M133 1130q0 125 88 212.5t212 87.5t212 -87.5t88 -212.5t-88 -213t-212 -88t-212 88.5t-88 212.5zM203 1130q0 -94 67.5 -161.5t162.5 -67.5t163 67.5t68 161.5t-68 162t-163 68t-162.5 -67.5t-67.5 -162.5z" />
<glyph unicode="&#xb1;" d="M139 150v83h766v-83h-766zM139 748v83h340v375h84v-375h342v-83h-342v-377h-84v377h-340z" />
<glyph unicode="&#xb2;" horiz-adv-x="737" d="M113 563l315 430q80 109 80 195q0 162 -182 162q-74 0 -144 -37l-28 61q88 47 195 47t180 -60t73 -162.5t-106 -242.5l-242 -317h350v-76h-491z" />
<glyph unicode="&#xb3;" horiz-adv-x="737" d="M123 598l27 64q72 -41 161.5 -41t142 49t52.5 135q0 115 -92 162q-68 33 -164 24v64q100 6 160.5 52t60.5 118q0 129 -143 129q-88 0 -150 -37l-26 59q88 47 182 47t159.5 -50t65.5 -140q0 -131 -145 -197q180 -53 180 -231q0 -115 -77 -184.5t-198.5 -69.5t-195.5 47z " />
<glyph unicode="&#xb4;" horiz-adv-x="348" d="M84 1229l145 274q47 31 89.5 31t50.5 -31l-219 -274h-66z" />
<glyph unicode="&#xb6;" d="M63 1047q0 184 121.5 273t302.5 89h469v-68h-61v-1781h-96v1781h-310v-1781h-96v1134q-152 12 -241 108.5t-89 244.5z" />
<glyph unicode="&#xb7;" horiz-adv-x="458" d="M141 705q0 37 26 62.5t62 25.5q37 0 62.5 -25.5t25.5 -62.5t-25.5 -63t-62.5 -26t-62.5 26t-25.5 63z" />
<glyph unicode="&#xb8;" horiz-adv-x="348" d="M-76 -391l35 53q51 -4 100 -4q264 0 265 88q0 74 -170 74q-41 0 -99 -4l35 51q55 6 103 6q231 0 231 -127q0 -145 -342 -145q-72 0 -158 8z" />
<glyph unicode="&#xb9;" horiz-adv-x="737" d="M164 1276q188 23 260 133h57v-846h-88v713q-90 -35 -223 -45z" />
<glyph unicode="&#xba;" horiz-adv-x="696" d="M78 1079q0 348 270 348t270 -348t-270 -348t-270 348zM164 1083q0 -291 184 -290q184 -1 184 290t-184 291t-184 -291z" />
<glyph unicode="&#xbb;" horiz-adv-x="1019" d="M164 303l274 381l-274 381l59 45l312 -426l-312 -426zM508 303l270 381l-270 381l57 45l312 -426l-312 -426z" />
<glyph unicode="&#xbc;" horiz-adv-x="1585" d="M113 1276q193 27 262 133h57v-846h-86v713q-92 -35 -227 -45zM385 18l698 1407l78 -34l-700 -1411zM909 201v61l355 584h75v-582h72v-63h-72v-201h-79v201h-351zM987 264h270v379q1 47 5 96h-5q-8 -25 -47 -96z" />
<glyph unicode="&#xbd;" horiz-adv-x="1585" d="M113 1276q193 27 262 133h57v-846h-86v713q-92 -35 -227 -45zM352 18l699 1407l77 -34l-700 -1411zM924 0l315 420q80 106 80 205q0 164 -184 163q-68 0 -142 -38l-26 61q90 47 195 47t177 -63.5t72 -171t-104 -240.5l-244 -309h348v-74h-487z" />
<glyph unicode="&#xbe;" horiz-adv-x="1585" d="M123 598l27 64q72 -41 162.5 -41t143 49t52.5 135q0 115 -92 162q-68 33 -164 24v64q100 6 160.5 52t60.5 118q0 129 -143 129q-88 0 -150 -37l-28 59q90 47 184 47t160 -50t65 -140q0 -131 -145 -197q180 -53 180 -231q0 -115 -77 -184.5t-199.5 -69.5t-196.5 47z M449 18l698 1407l78 -34l-701 -1411zM920 201v61l354 584h76v-582h71v-63h-71v-201h-80v201h-350zM997 264h271v379q0 43 4 94h-4q-8 -23 -47 -94z" />
<glyph unicode="&#xbf;" horiz-adv-x="749" d="M92 -145.5q0 135.5 105 231.5q84 80 188 109l23 333h79l27 -372q-115 -27 -199 -88q-111 -84 -110.5 -197t67 -177.5t191.5 -64.5t219 56l37 -66q-111 -74 -270.5 -74t-258 87t-98.5 222.5zM360 889q0 35 26 60.5t60 25.5q35 0 60.5 -25.5t25.5 -60.5t-25.5 -60.5 t-60.5 -25.5t-60.5 25.5t-25.5 60.5z" />
<glyph unicode="&#xc0;" horiz-adv-x="1169" d="M53 0l488 1409h92l483 -1409h-121l-155 481h-516l-160 -481h-111zM336 1790q10 29 52 29t87 -29l146 -274h-66zM348 557h467l-184 569q-18 57 -45 166h-4q-14 -53 -47 -164z" />
<glyph unicode="&#xc1;" horiz-adv-x="1169" d="M53 0l488 1409h92l483 -1409h-121l-155 481h-516l-160 -481h-111zM348 557h467l-184 569q-18 57 -45 166h-4q-14 -53 -47 -164zM526 1516l146 274q47 31 89 31t50 -31l-219 -274h-66z" />
<glyph unicode="&#xc2;" horiz-adv-x="1169" d="M53 0l488 1409h92l483 -1409h-121l-155 481h-516l-160 -481h-111zM334 1548l194 201q27 27 59 27t58 -27l197 -201l-35 -26l-219 164l-221 -164zM348 557h467l-184 569q-18 57 -45 166h-4q-14 -53 -47 -164z" />
<glyph unicode="&#xc3;" horiz-adv-x="1169" d="M53 0l488 1409h92l483 -1409h-121l-155 481h-516l-160 -481h-111zM315 1593q39 98 136 109q59 6 135 -39t123 -39q72 10 96 86l51 -53q-33 -90 -129 -105q-57 -8 -138 35q-176 93 -227 -45zM348 557h467l-184 569q-18 57 -45 166h-4q-14 -53 -47 -164z" />
<glyph unicode="&#xc4;" horiz-adv-x="1169" d="M53 0l488 1409h92l483 -1409h-121l-155 481h-516l-160 -481h-111zM348 557h467l-184 569q-18 57 -45 166h-4q-14 -53 -47 -164zM365 1634q0 29 20.5 49.5t48 20.5t48 -20.5t20.5 -49.5t-19.5 -49t-48.5 -20q-70 0 -69 69zM672 1634q0 29 20.5 49.5t48 20.5t48 -20.5 t20.5 -49.5q0 -70 -70 -69q-29 0 -48 20.5t-19 48.5z" />
<glyph unicode="&#xc5;" horiz-adv-x="1169" d="M53 0l488 1409h92l483 -1409h-121l-155 481h-516l-160 -481h-111zM348 557h467l-184 569q-18 57 -45 166h-4q-14 -53 -47 -164zM430 1671q0 66 46 112t112 46t110.5 -46t44.5 -110.5t-45 -110.5t-110 -46q-66 0 -112 45t-46 110zM485 1672q0 -42 30 -71.5t72 -29.5 t71.5 29.5t29.5 71.5t-29.5 72t-71.5 30t-72 -30t-30 -72z" />
<glyph unicode="&#xc6;" horiz-adv-x="1511" d="M25 0l587 1409h727v-80h-598l146 -557h450v-80h-430l160 -612h403v-80h-497l-117 481h-524l-195 -481h-112zM358 557h480l-156 635q-16 63 -23 129h-4q-6 -29 -41 -131z" />
<glyph unicode="&#xc7;" horiz-adv-x="966" d="M121 702.5q0 311.5 140 519.5t372 208q160 0 262 -74l-35 -70q-86 61 -211 62q-207 0 -313 -199q-92 -170 -92 -444t94 -447q109 -193 309 -192q115 0 213 59l35 -70q-92 -76 -260 -75q-231 0 -372.5 205.5t-141.5 517zM293 -391l35 53q51 -4 100 -4q264 0 264 88 q0 74 -170 74q-43 0 -98 -4l35 51q53 6 100 6q234 0 234 -127q0 -145 -342 -145q-72 0 -158 8z" />
<glyph unicode="&#xc8;" horiz-adv-x="886" d="M170 0v1409h621v-80h-504v-557h456v-80h-456v-612h504v-80h-621zM260 1790q10 29 52 29t87 -29l146 -274h-66z" />
<glyph unicode="&#xc9;" horiz-adv-x="886" d="M170 0v1409h621v-80h-504v-557h456v-80h-456v-612h504v-80h-621zM410 1516l145 274q47 31 89 31t50 -31l-219 -274h-65z" />
<glyph unicode="&#xca;" horiz-adv-x="886" d="M170 0v1409h621v-80h-504v-557h456v-80h-456v-612h504v-80h-621zM217 1548l195 201q27 27 58.5 27t57.5 -27l197 -201l-35 -26l-219 164l-221 -164z" />
<glyph unicode="&#xcb;" horiz-adv-x="886" d="M170 0v1409h621v-80h-504v-557h456v-80h-456v-612h504v-80h-621zM248 1634q0 29 20.5 49.5t48 20.5t48 -20.5t20.5 -49.5t-19.5 -49t-48.5 -20q-70 0 -69 69zM555 1634q0 29 20.5 49.5t48.5 20.5t48 -20.5t20 -49.5q0 -70 -69 -69q-29 0 -48.5 20.5t-19.5 48.5z" />
<glyph unicode="&#xcc;" horiz-adv-x="473" d="M41 1790q10 29 52 29t87 -29l146 -274h-66zM180 0v1409h117v-1409h-117z" />
<glyph unicode="&#xcd;" horiz-adv-x="473" d="M147 1516l146 274q47 31 89 31t50 -31l-219 -274h-66zM176 0v1409h117v-1409h-117z" />
<glyph unicode="&#xce;" horiz-adv-x="473" d="M-16 1548l194 201q27 27 59 27t58 -27l194 -201l-32 -26l-219 164l-222 -164zM178 0v1409h117v-1409h-117z" />
<glyph unicode="&#xcf;" horiz-adv-x="473" d="M14 1634q0 29 20.5 49.5t48.5 20.5t48.5 -20.5t20.5 -49.5t-19.5 -49t-48.5 -20q-70 0 -70 69zM178 0v1409h117v-1409h-117zM322 1634q0 29 20 49.5t48 20.5t48.5 -20.5t20.5 -49.5q0 -70 -70 -69q-29 0 -48 20.5t-19 48.5z" />
<glyph unicode="&#xd0;" horiz-adv-x="1253" d="M96 737v60h133v557q127 76 344 76q264 0 412 -185.5t148 -526.5t-141.5 -540t-413.5 -198q-233 0 -349 73v684h-133zM346 98q84 -35 215 -35q449 1 449 660q0 633 -451 633q-129 0 -213 -33v-526h272v-58h-272v-641z" />
<glyph unicode="&#xd1;" horiz-adv-x="1318" d="M170 0v1409h149l650 -1122q49 -86 84 -158h6q-8 74 -8 164v1116h98v-1409h-119l-665 1145q-51 90 -99 184h-4q6 -98 6 -186v-1143h-98zM391 1593q39 98 135 109q59 6 135 -39t123 -39q72 10 97 86l51 -53q-33 -90 -129 -105q-57 -8 -138 35q-176 93 -227 -45z" />
<glyph unicode="&#xd2;" horiz-adv-x="1218" d="M120.5 703.5q0.5 325.5 120 526t368.5 200.5t376 -211q113 -190 113 -516t-113 -513q-127 -211 -377 -210q-250 0 -375 210q-113 188 -112.5 513.5zM237.5 709q0.5 -641 372 -641t371.5 641t-372 641t-371.5 -641zM395 1790q10 29 52 29t88 -29l145 -274h-66z" />
<glyph unicode="&#xd3;" horiz-adv-x="1218" d="M120.5 703.5q0.5 325.5 120 526t368.5 200.5t376 -211q113 -190 113 -516t-113 -513q-127 -211 -377 -210q-250 0 -375 210q-113 188 -112.5 513.5zM237.5 709q0.5 -641 372 -641t371.5 641t-372 641t-371.5 -641zM524 1516l146 274q47 31 89 31t50 -31l-219 -274h-66z " />
<glyph unicode="&#xd4;" horiz-adv-x="1218" d="M120.5 703.5q0.5 325.5 120 526t368.5 200.5t376 -211q113 -190 113 -516t-113 -513q-127 -211 -377 -210q-250 0 -375 210q-113 188 -112.5 513.5zM237.5 709q0.5 -641 372 -641t371.5 641t-372 641t-371.5 -641zM356 1548l195 201q27 27 58.5 27t58.5 -27l196 -201 l-35 -26l-219 164l-221 -164z" />
<glyph unicode="&#xd5;" horiz-adv-x="1218" d="M120.5 703.5q0.5 325.5 120 526t368.5 200.5t376 -211q113 -190 113 -516t-113 -513q-127 -211 -377 -210q-250 0 -375 210q-113 188 -112.5 513.5zM237.5 709q0.5 -641 372 -641t371.5 641t-372 641t-371.5 -641zM330 1593q39 98 135 109q59 6 135 -39t123 -39 q72 10 96 86l51 -53q-33 -90 -129 -105q-57 -8 -138 35q-176 94 -226 -45z" />
<glyph unicode="&#xd6;" horiz-adv-x="1218" d="M120.5 703.5q0.5 325.5 120 526t368.5 200.5t376 -211q113 -190 113 -516t-113 -513q-127 -211 -377 -210q-250 0 -375 210q-113 188 -112.5 513.5zM237.5 709q0.5 -641 372 -641t371.5 641t-372 641t-371.5 -641zM387 1634q0 29 20.5 49.5t48.5 20.5t48 -20.5t20 -49.5 t-19.5 -49t-47.5 -20q-70 0 -70 69zM694 1634q0 29 20.5 49.5t48.5 20.5t48 -20.5t20 -49.5q0 -70 -69 -69q-29 0 -48.5 20.5t-19.5 48.5z" />
<glyph unicode="&#xd7;" d="M131 303l338 381l-338 383l59 55l332 -374l330 374l59 -55l-336 -383l338 -383l-57 -55l-334 377l-329 -375z" />
<glyph unicode="&#xd8;" horiz-adv-x="1230" d="M127 699.5q0 329.5 113 519.5q127 211 374 211q207 0 332 -148l109 170l49 -29l-121 -190q121 -192 121 -524t-113 -519q-127 -211 -377 -210q-211 0 -333 151l-105 -164l-47 31l117 182q-119 190 -119 519.5zM235.5 708q0.5 -271 71.5 -432l584 920q-94 160 -287 160 t-291 -209q-78 -168 -77.5 -439zM336 219q98 -158 278 -158q381 1 381 646q0 268 -73 430z" />
<glyph unicode="&#xd9;" horiz-adv-x="1167" d="M170 395v1014h117v-1014q0 -147 89 -235t214 -88t214 88t89 235v1014h104v-1014q0 -176 -111.5 -297t-301.5 -121t-302 121t-112 297zM406 1790q10 29 52 29t87 -29l145 -274h-67z" />
<glyph unicode="&#xda;" horiz-adv-x="1167" d="M170 395v1014h117v-1014q0 -147 89 -235t214 -88t214 88t89 235v1014h104v-1014q0 -176 -111.5 -297t-301.5 -121t-302 121t-112 297zM504 1516l145 274q47 31 89 31t50 -31l-217 -274h-67z" />
<glyph unicode="&#xdb;" horiz-adv-x="1167" d="M170 395v1014h117v-1014q0 -147 89 -235t214 -88t214 88t89 235v1014h104v-1014q0 -176 -111.5 -297t-301.5 -121t-302 121t-112 297zM332 1548l196 201q27 27 58 27t57 -27l197 -201l-35 -26l-217 164l-221 -164z" />
<glyph unicode="&#xdc;" horiz-adv-x="1167" d="M170 395v1014h117v-1014q0 -147 89 -235t214 -88t214 88t89 235v1014h104v-1014q0 -176 -111.5 -297t-301.5 -121t-302 121t-112 297zM371 1634q0 29 20.5 49.5t48.5 20.5q29 0 49.5 -20.5t20.5 -49.5q0 -70 -70 -69q-70 0 -69 69zM678 1634q0 29 20.5 49.5t48.5 20.5 t48 -20.5t20 -49.5t-19.5 -49t-47.5 -20q-70 0 -70 69z" />
<glyph unicode="&#xdd;" horiz-adv-x="991" d="M51 1409h129l320 -690h4l330 690h112l-391 -768v-641h-115v641zM430 1516l145 274q47 31 89.5 31t50.5 -31l-219 -274h-66z" />
<glyph unicode="&#xde;" horiz-adv-x="1034" d="M170 0v1409h117v-260q106 33 192 33q211 0 328 -119t117 -307t-144 -303t-422 -99l-71 4v-358h-117zM287 434l67 -6q37 -4 72 -4q190 0 286.5 90t96.5 249.5t-95 254t-247 94.5q-98 0 -180 -27v-651z" />
<glyph unicode="&#xdf;" horiz-adv-x="1073" d="M166 0v1112q0 207 70 338q92 176 303 176q174 0 262 -122t88 -310q0 -109 -31 -197q-242 -27 -242 -206q0 -109 164 -207q193 -115 193 -295q0 -123 -95 -212t-228.5 -89t-200.5 41l30 73q66 -31 161 -30.5t158.5 61t63.5 148.5t-37 137t-129 104q-180 106 -180 264 q0 209 246 265q18 57 18 147q0 354 -241 354q-262 0 -263 -438v-1114h-110z" />
<glyph unicode="&#xe0;" horiz-adv-x="978" d="M100 295q0 205 179 307q143 84 438 113v76q0 254 -268 253q-131 0 -256 -71l-31 71q139 80 297 80t260.5 -78.5t101.5 -257.5v-733q-135 -76 -334 -75q-387 0 -387 315zM209 295q0 -248 293 -248q131 0 215 45v557q-268 -35 -375 -100q-133 -80 -133 -254zM289 1503 q10 29 52 29t87 -29l145 -274h-65z" />
<glyph unicode="&#xe1;" horiz-adv-x="978" d="M100 295q0 205 179 307q143 84 438 113v76q0 254 -268 253q-131 0 -256 -71l-31 71q139 80 297 80t260.5 -78.5t101.5 -257.5v-733q-135 -76 -334 -75q-387 0 -387 315zM209 295q0 -248 293 -248q131 0 215 45v557q-268 -35 -375 -100q-133 -80 -133 -254zM438 1229 l146 274q47 31 89 31t50 -31l-219 -274h-66z" />
<glyph unicode="&#xe2;" horiz-adv-x="978" d="M100 295q0 205 179 307q143 84 438 113v76q0 254 -268 253q-131 0 -256 -71l-31 71q139 80 297 80t260.5 -78.5t101.5 -257.5v-733q-135 -76 -334 -75q-387 0 -387 315zM209 295q0 -248 293 -248q131 0 215 45v557q-268 -35 -375 -100q-133 -80 -133 -254zM236 1262 l194 200q27 27 58.5 27t58.5 -27l196 -200l-34 -27l-220 164l-221 -164z" />
<glyph unicode="&#xe3;" horiz-adv-x="978" d="M100 295q0 205 179 307q143 84 438 113v76q0 254 -268 253q-131 0 -256 -71l-31 71q139 80 297 80t260.5 -78.5t101.5 -257.5v-733q-135 -76 -334 -75q-387 0 -387 315zM209 295q0 -248 293 -248q131 0 215 45v557q-268 -35 -375 -100q-133 -80 -133 -254zM215 1307 q39 98 135 108q59 6 135 -39t123 -39q72 10 97 86l51 -53q-33 -90 -129 -104q-57 -8 -138 34q-177 94 -227 -45z" />
<glyph unicode="&#xe4;" horiz-adv-x="978" d="M100 295q0 205 179 307q143 84 438 113v76q0 254 -268 253q-131 0 -256 -71l-31 71q139 80 297 80t260.5 -78.5t101.5 -257.5v-733q-135 -76 -334 -75q-387 0 -387 315zM209 295q0 -248 293 -248q131 0 215 45v557q-268 -35 -375 -100q-133 -80 -133 -254zM276 1348 q0 29 20.5 49t48.5 20t48.5 -20t20.5 -49t-19.5 -49.5t-48.5 -20.5q-70 0 -70 70zM584 1348q0 29 20.5 49t48 20t48 -20t20.5 -49q0 -70 -70 -70q-29 0 -48 20.5t-19 49.5z" />
<glyph unicode="&#xe5;" horiz-adv-x="978" d="M100 295q0 205 179 307q143 84 438 113v76q0 254 -268 253q-131 0 -256 -71l-31 71q139 80 297 80t260.5 -78.5t101.5 -257.5v-733q-135 -76 -334 -75q-387 0 -387 315zM209 295q0 -248 293 -248q131 0 215 45v557q-268 -35 -375 -100q-133 -80 -133 -254zM340 1384 q0 66 46 112t112 46t110.5 -46t44.5 -110.5t-45 -110.5t-110 -46q-66 0 -112 45t-46 110zM395 1385q0 -42 30 -71.5t72 -29.5t71.5 29.5t29.5 71.5t-29.5 72t-71.5 30t-72 -30t-30 -72z" />
<glyph unicode="&#xe6;" horiz-adv-x="1619" d="M100 293q0 358 619 420v78q0 256 -287 256q-119 0 -235 -68l-27 70q113 76 285 75q254 0 327 -221q98 221 330 221q393 0 395 -516l-708 -104q8 -223 111 -331.5t260 -109t268 61.5l32 -74q-119 -72 -303 -71q-258 0 -379 223q-94 -223 -327 -223q-360 0 -361 313z M201 291q0 -242 266 -242q102 0 177 66.5t75 177.5v348q-272 -35 -383 -98q-135 -80 -135 -252zM797 571l602 93q-8 379 -289 378q-139 0 -226 -115.5t-87 -355.5z" />
<glyph unicode="&#xe7;" horiz-adv-x="833" d="M113 555q0 262 111.5 415.5t297.5 153.5q141 0 230 -69l-31 -70q-76 57 -182 57q-313 0 -314 -483q0 -223 80 -358t227 -135q104 0 187 59l33 -76q-82 -70 -248 -69.5t-278.5 157t-112.5 418.5zM180 -391l35 53q51 -4 100 -4q264 0 265 88q0 74 -170 74q-43 0 -99 -4 l35 51q55 6 103 6q231 0 231 -127q0 -145 -342 -145q-72 0 -158 8z" />
<glyph unicode="&#xe8;" horiz-adv-x="1038" d="M113 547q0 287 117 432t300 145q396 0 396 -516l-709 -104q25 -438 371 -438q154 0 264 65l35 -80q-115 -72 -315.5 -71.5t-321.5 133.5q-137 147 -137 434zM215 571l602 93q0 379 -289 378q-141 0 -223 -108q-90 -123 -90 -363zM313 1503q10 29 52.5 29t87.5 -29 l145 -274h-66z" />
<glyph unicode="&#xe9;" horiz-adv-x="1038" d="M113 547q0 287 117 432t300 145q396 0 396 -516l-709 -104q25 -438 371 -438q154 0 264 65l35 -80q-115 -72 -315.5 -71.5t-321.5 133.5q-137 147 -137 434zM215 571l602 93q0 379 -289 378q-141 0 -223 -108q-90 -123 -90 -363zM463 1229l145 274q47 31 89.5 31 t50.5 -31l-220 -274h-65z" />
<glyph unicode="&#xea;" horiz-adv-x="1038" d="M113 547q0 287 117 432t300 145q396 0 396 -516l-709 -104q25 -438 371 -438q154 0 264 65l35 -80q-115 -72 -315.5 -71.5t-321.5 133.5q-137 147 -137 434zM215 571l602 93q0 379 -289 378q-141 0 -223 -108q-90 -123 -90 -363zM274 1262l195 200q27 27 58.5 27 t58.5 -27l196 -200l-34 -27l-220 164l-221 -164z" />
<glyph unicode="&#xeb;" horiz-adv-x="1038" d="M113 547q0 287 117 432t300 145q396 0 396 -516l-709 -104q25 -438 371 -438q154 0 264 65l35 -80q-115 -72 -315.5 -71.5t-321.5 133.5q-137 147 -137 434zM215 571l602 93q0 379 -289 378q-141 0 -223 -108q-90 -123 -90 -363zM311 1348q0 29 20.5 49t48.5 20t48.5 -20 t20.5 -49t-19.5 -49.5t-48.5 -20.5q-70 0 -70 70zM618 1348q0 29 20.5 49t48.5 20t48.5 -20t20.5 -49q0 -70 -70 -70q-29 0 -48.5 20.5t-19.5 49.5z" />
<glyph unicode="&#xec;" horiz-adv-x="454" d="M27 1503q10 29 52 29t87 -29l145 -274h-65zM172 0v1104h111v-1104h-111z" />
<glyph unicode="&#xed;" horiz-adv-x="454" d="M143 1229l146 274q47 31 89 31t50 -31l-219 -274h-66zM172 0v1104h111v-1104h-111z" />
<glyph unicode="&#xee;" horiz-adv-x="454" d="M-27 1262l197 200q27 27 57.5 27t57.5 -27l196 -200l-35 -27l-217 164l-221 -164zM172 0v1104h111v-1104h-111z" />
<glyph unicode="&#xef;" horiz-adv-x="454" d="M6 1348q0 29 20.5 49t48.5 20t48 -20t20 -49t-19.5 -49.5t-47.5 -20.5q-70 0 -70 70zM174 0v1104h111v-1104h-111zM311 1348q0 29 20.5 49t48.5 20t48.5 -20t20.5 -49q0 -70 -70 -70q-29 0 -48.5 20.5t-19.5 49.5z" />
<glyph unicode="&#xf0;" horiz-adv-x="1024" d="M113 524.5q0 250.5 88 399.5q106 182 325 182q92 0 168 -25q-84 203 -164 334l-184 -53l-29 47l183 57q-45 70 -92 127l86 29q25 -27 96 -127l158 47l28 -47l-158 -51q289 -469 289 -905q0 -563 -389 -564q-193 0 -299 149.5t-106 400zM223.5 549q-0.5 -495 296.5 -496 q277 0 277 492q0 264 -84 473q-92 27 -170 26q-319 0 -319.5 -495z" />
<glyph unicode="&#xf1;" horiz-adv-x="1046" d="M158 0v1047q145 78 379 77q352 0 352 -307v-817h-111v815q0 233 -264 234q-139 0 -246 -45v-1004h-110zM244 1307q39 98 135 108q59 6 135 -39t123 -39q72 10 96 86l51 -53q-33 -90 -129 -104q-57 -8 -138 34q-176 93 -226 -45z" />
<glyph unicode="&#xf2;" horiz-adv-x="1032" d="M113 552.5q0 260.5 94 408.5q102 164 309 163.5t305.5 -156t98.5 -415.5t-93 -408q-104 -166 -310 -165.5t-310 165.5q-94 147 -94 407.5zM223 556.5q0 -496.5 295 -497.5q291 1 291 497.5t-293 496.5t-293 -496.5zM293 1503q10 29 52 29t87 -29l146 -274h-66z" />
<glyph unicode="&#xf3;" horiz-adv-x="1032" d="M113 552.5q0 260.5 94 408.5q102 164 309 163.5t305.5 -156t98.5 -415.5t-93 -408q-104 -166 -310 -165.5t-310 165.5q-94 147 -94 407.5zM223 556.5q0 -496.5 295 -497.5q291 1 291 497.5t-293 496.5t-293 -496.5zM451 1229l145 274q47 31 89 31t50 -31l-219 -274h-65z " />
<glyph unicode="&#xf4;" horiz-adv-x="1032" d="M113 552.5q0 260.5 94 408.5q102 164 309 163.5t305.5 -156t98.5 -415.5t-93 -408q-104 -166 -310 -165.5t-310 165.5q-94 147 -94 407.5zM223 556.5q0 -496.5 295 -497.5q291 1 291 497.5t-293 496.5t-293 -496.5zM262 1262l195 200q27 27 58.5 27t57.5 -27l197 -200 l-35 -27l-219 164l-221 -164z" />
<glyph unicode="&#xf5;" horiz-adv-x="1032" d="M113 552.5q0 260.5 94 408.5q102 164 309 163.5t305.5 -156t98.5 -415.5t-93 -408q-104 -166 -310 -165.5t-310 165.5q-94 147 -94 407.5zM223 556.5q0 -496.5 295 -497.5q291 1 291 497.5t-293 496.5t-293 -496.5zM240 1307q39 98 135 108q59 6 135 -39t123 -39 q72 10 96 86l51 -53q-33 -90 -129 -104q-57 -8 -138 34q-176 93 -226 -45z" />
<glyph unicode="&#xf6;" horiz-adv-x="1032" d="M113 552.5q0 260.5 94 408.5q102 164 309 163.5t305.5 -156t98.5 -415.5t-93 -408q-104 -166 -310 -165.5t-310 165.5q-94 147 -94 407.5zM223 556.5q0 -496.5 295 -497.5q291 1 291 497.5t-293 496.5t-293 -496.5zM293 1348q0 29 20.5 49t48 20t48 -20t20.5 -49 t-19.5 -49.5t-48.5 -20.5q-70 0 -69 70zM600 1348q0 29 20.5 49t48.5 20t48 -20t20 -49q0 -70 -69 -70q-29 0 -48.5 20.5t-19.5 49.5z" />
<glyph unicode="&#xf7;" d="M139 641v84h766v-84h-766zM434 360q0 35 25.5 60.5t61.5 25.5t61.5 -25.5t25.5 -60.5t-25.5 -60.5t-61.5 -25.5t-61.5 26t-25.5 60zM434 1006q0 35 25.5 60.5t61.5 25.5t61.5 -25.5t25.5 -60.5t-25.5 -60.5t-61.5 -25.5t-61.5 25.5t-25.5 60.5z" />
<glyph unicode="&#xf8;" horiz-adv-x="1032" d="M112.5 538q0.5 275 94.5 423q102 164 307 163q156 0 250 -88l88 152l45 -27l-96 -164q119 -147 119 -425.5t-93 -426.5q-104 -166 -309 -165q-156 0 -252 92l-90 -156l-45 27l98 170q-117 150 -116.5 425zM217 551q0 -217 66 -346l438 758q-74 100 -203 100 q-301 0 -301 -512zM313 154q74 -100 205 -101q297 0 297 498q0 227 -63 360z" />
<glyph unicode="&#xf9;" horiz-adv-x="1024" d="M158 324v780h110v-776q0 -123 66 -196t198.5 -73t223.5 54v991h110v-1038q-147 -88 -352 -89q-356 0 -356 347zM317 1503q10 29 52.5 29t87.5 -29l145 -274h-65z" />
<glyph unicode="&#xfa;" horiz-adv-x="1024" d="M158 324v780h110v-776q0 -123 66 -196t198.5 -73t223.5 54v991h110v-1038q-147 -88 -352 -89q-356 0 -356 347zM451 1229l145 274q47 31 89 31t50 -31l-219 -274h-65z" />
<glyph unicode="&#xfb;" horiz-adv-x="1024" d="M158 324v780h110v-776q0 -123 66 -196t198.5 -73t223.5 54v991h110v-1038q-147 -88 -352 -89q-356 0 -356 347zM260 1262l195 200q27 27 58.5 27t57.5 -27l197 -200l-35 -27l-219 164l-221 -164z" />
<glyph unicode="&#xfc;" horiz-adv-x="1024" d="M158 324v780h110v-776q0 -123 66 -196t198.5 -73t223.5 54v991h110v-1038q-147 -88 -352 -89q-356 0 -356 347zM289 1348q0 29 20.5 49t48.5 20q29 0 49.5 -20t20.5 -49q0 -70 -70 -70t-69 70zM596 1348q0 29 20.5 49t48.5 20t48 -20t20 -49t-19.5 -49.5t-47.5 -20.5 q-70 0 -70 70z" />
<glyph unicode="&#xfd;" horiz-adv-x="964" d="M74 1104h119l296 -961h5l301 961h102l-514 -1544h-119l182 440zM424 1229l145 274q47 31 89.5 31t50.5 -31l-220 -274h-65z" />
<glyph unicode="&#xfe;" horiz-adv-x="1038" d="M158 -440v2048h108v-541q94 53 201 53q225 0 342 -148.5t117 -411.5t-135.5 -418.5t-346.5 -155.5q-82 0 -176 26v-452h-110zM268 78q90 -25 158 -25q205 0 305 160q84 133 84 351t-87 353t-271 136q-106 0 -189 -45v-930z" />
<glyph unicode="&#xff;" horiz-adv-x="964" d="M74 1104h119l296 -961h5l301 961h102l-514 -1544h-119l182 440zM268 1348q0 29 20.5 49t48.5 20t48.5 -20t20.5 -49t-19.5 -49.5t-48.5 -20.5q-70 0 -70 70zM575 1348q0 29 20.5 49t48.5 20t48.5 -20t20.5 -49q0 -70 -70 -70q-29 0 -48.5 20.5t-19.5 49.5z" />
<glyph unicode="&#x152;" horiz-adv-x="1548" d="M121 705q0 319 131 512q145 213 418 213q94 0 170 -21h612v-80h-502v-557h459v-80h-459v-610h502v-82h-612q-66 -20 -170 -20q-272 0 -410.5 203t-138.5 522zM242 705q0 -254 80 -420q109 -227 348 -228q117 1 170 17v1263q-68 20 -170 21q-240 0 -348 -232 q-80 -168 -80 -421z" />
<glyph unicode="&#x153;" horiz-adv-x="1712" d="M113 551.5q0 259.5 99 416.5t304 156q121 0 200 -59t140 -195q111 254 348 254q387 0 395 -524l-704 -76q37 -463 377 -463q143 0 256 66l35 -74q-117 -74 -299 -73q-283 0 -404 284q-92 -285 -344 -284q-205 0 -309 165q-94 147 -94 406.5zM223 551q0 -193 51 -318 q74 -176 242 -176q293 0 293 498t-293 498t-293 -502zM893 588l594 67q0 397 -285 398q-139 0 -221 -111q-88 -123 -88 -354z" />
<glyph unicode="&#x178;" horiz-adv-x="991" d="M51 1409h129l320 -690h4l330 690h112l-391 -768v-641h-115v641zM279 1634q0 29 20 49.5t48 20.5t48.5 -20.5t20.5 -49.5t-19.5 -49t-48.5 -20q-70 0 -69 69zM586 1634q0 29 20.5 49.5t48 20.5t48 -20.5t20.5 -49.5q0 -70 -70 -69q-29 0 -48 20.5t-19 48.5z" />
<glyph unicode="&#x2c6;" horiz-adv-x="348" d="M-80 1262l197 200q27 27 57.5 27t56.5 -27l197 -200l-35 -27l-217 164l-221 -164z" />
<glyph unicode="&#x2dc;" horiz-adv-x="348" d="M-96 1307q39 98 135 108q59 6 135 -39t123 -39q72 10 96 86l51 -53q-33 -90 -129 -104q-57 -8 -139 34.5t-129 38.5q-68 -6 -96 -84z" />
<glyph unicode="&#x2000;" horiz-adv-x="914" />
<glyph unicode="&#x2001;" horiz-adv-x="1829" />
<glyph unicode="&#x2002;" horiz-adv-x="914" />
<glyph unicode="&#x2003;" horiz-adv-x="1829" />
<glyph unicode="&#x2004;" horiz-adv-x="609" />
<glyph unicode="&#x2005;" horiz-adv-x="457" />
<glyph unicode="&#x2006;" horiz-adv-x="304" />
<glyph unicode="&#x2007;" horiz-adv-x="304" />
<glyph unicode="&#x2008;" horiz-adv-x="228" />
<glyph unicode="&#x2009;" horiz-adv-x="365" />
<glyph unicode="&#x200a;" horiz-adv-x="101" />
<glyph unicode="&#x2010;" horiz-adv-x="692" d="M133 643v98h426v-98h-426z" />
<glyph unicode="&#x2011;" horiz-adv-x="692" d="M133 643v98h426v-98h-426z" />
<glyph unicode="&#x2012;" horiz-adv-x="692" d="M133 643v98h426v-98h-426z" />
<glyph unicode="&#x2013;" horiz-adv-x="798" d="M0 641v92h799v-92h-799z" />
<glyph unicode="&#x2014;" horiz-adv-x="1597" d="M0 647v80h1597v-80h-1597z" />
<glyph unicode="&#x2018;" horiz-adv-x="493" d="M123 1145l219 463h59l-153 -463q-25 -31 -70 -31t-55 31z" />
<glyph unicode="&#x2019;" horiz-adv-x="493" d="M92 1120l154 463q27 31 71 31t54 -31l-219 -463h-60z" />
<glyph unicode="&#x201a;" horiz-adv-x="493" d="M92 -346l154 463q31 31 73 31t52 -31l-219 -463h-60z" />
<glyph unicode="&#x201c;" horiz-adv-x="808" d="M123 1145l219 463h59l-153 -463q-25 -31 -70 -31t-55 31zM438 1145l219 463h60l-154 -463q-25 -31 -70 -31t-55 31z" />
<glyph unicode="&#x201d;" horiz-adv-x="808" d="M92 1120l154 463q27 31 71 31t54 -31l-219 -463h-60zM408 1120l153 463q27 31 71 31t54 -31l-219 -463h-59z" />
<glyph unicode="&#x201e;" horiz-adv-x="808" d="M92 -346l154 463q31 31 73 31t52 -31l-219 -463h-60zM408 -346l153 463q31 31 73 31t52 -31l-219 -463h-59z" />
<glyph unicode="&#x2022;" horiz-adv-x="593" d="M154 723q0 59 42 101t101 42t101 -42t42 -101t-42 -101t-101 -42t-101 42t-42 101z" />
<glyph unicode="&#x2026;" horiz-adv-x="1622" d="M184 81q0 36 26 61.5t60 25.5q35 0 60.5 -25.5t25.5 -61.5t-25.5 -61.5t-60.5 -25.5t-60.5 25.5t-25.5 61.5zM725 81q0 36 25.5 61.5t60.5 25.5t60.5 -25.5t25.5 -61.5t-25.5 -61.5t-60.5 -25.5t-60.5 25.5t-25.5 61.5zM1266 81q0 36 25.5 61.5t60.5 25.5t60.5 -25.5 t25.5 -61.5t-26 -61.5t-60 -25.5q-35 0 -60.5 25.5t-25.5 61.5z" />
<glyph unicode="&#x202f;" horiz-adv-x="365" />
<glyph unicode="&#x2039;" horiz-adv-x="675" d="M143 684l312 426l57 -45l-270 -381l270 -381l-57 -45z" />
<glyph unicode="&#x203a;" horiz-adv-x="675" d="M164 303l270 381l-270 381l57 45l311 -426l-311 -426z" />
<glyph unicode="&#x205f;" horiz-adv-x="457" />
<glyph unicode="&#x2122;" horiz-adv-x="1603" d="M102 1350v59h484v-59h-203v-656h-76v656h-205zM651 694l86 715h123l189 -651l186 651h121l86 -715h-74l-78 664l-205 -664h-77l-205 664l-74 -664h-78z" />
<glyph unicode="&#xe000;" horiz-adv-x="1105" d="M0 0v1105h1105v-1105h-1105z" />
</font>
</defs>
</svg>
