<?xml version="1.0" standalone="no"?>
<!DOCTYPE svg PUBLIC "-//W3C//DTD SVG 1.1//EN" "http://www.w3.org/Graphics/SVG/1.1/DTD/svg11.dtd" >
<svg xmlns="http://www.w3.org/2000/svg">
<metadata></metadata>
<defs>
<font id="daxitalic" horiz-adv-x="1089" >
<font-face units-per-em="2048" ascent="1608" descent="-440" />
<missing-glyph horiz-adv-x="565" />
<glyph unicode="&#xfb01;" horiz-adv-x="1073" d="M104 0l205 993h-125l23 111h127l31 156q18 96 60 162.5t96 108.5t117.5 60.5t127.5 18.5h22.5t22.5 -2l-25 -115q-31 0 -67.5 -10t-70.5 -35t-60.5 -67t-38.5 -103l-35 -174h193l-23 -111h-195l-204 -993h-181zM639 0l229 1104h181l-230 -1104h-180zM913 1395 q0 45 38 81.5t89 36.5q39 0 63.5 -23t24.5 -56q0 -47 -38.5 -83t-90.5 -36q-39 0 -62.5 22.5t-23.5 57.5z" />
<glyph unicode="&#xfb02;" horiz-adv-x="1093" d="M104 0l205 993h-125l23 111h127l31 156q18 96 60 162.5t96 108.5t117.5 60.5t127.5 18.5h22.5t22.5 -2l-25 -115q-31 0 -67.5 -10t-70.5 -35t-60.5 -67t-38.5 -103l-35 -174h193l-23 -111h-195l-204 -993h-181zM651 0l334 1608h180l-334 -1608h-180z" />
<glyph horiz-adv-x="2048" />
<glyph horiz-adv-x="2048" />
<glyph unicode="&#xd;" horiz-adv-x="565" />
<glyph unicode=" "  horiz-adv-x="565" />
<glyph unicode="&#x09;" horiz-adv-x="565" />
<glyph unicode="&#xa0;" horiz-adv-x="565" />
<glyph unicode="!" horiz-adv-x="612" d="M117 86q0 27 12 51.5t31.5 45t46 32.5t55.5 12q43 0 69.5 -25.5t26.5 -66.5q0 -27 -12 -52.5t-31.5 -45t-46 -31.5t-55.5 -12q-43 0 -69.5 25.5t-26.5 66.5zM242 463l157 946h213l-233 -946h-137z" />
<glyph unicode="&#x22;" horiz-adv-x="798" d="M258 870l70 514q41 41 96 41q57 0 80 -41l-150 -514h-96zM588 870l69 514q41 41 97 41q53 0 77 -41l-147 -514h-96z" />
<glyph unicode="#" d="M98 471l11 92h217l67 320h-209l13 92h215l90 434h104l-88 -434h240l90 434h106l-90 -434h211l-12 -92h-217l-70 -320h211l-10 -92h-219l-96 -471h-107l98 471h-241l-101 -471h-102l98 471h-209zM430 563h242l67 320h-241z" />
<glyph unicode="$" d="M61 57l72 121q33 -23 86 -41t137 -18q76 0 138.5 26.5t106.5 70.5t67.5 102.5t23.5 123.5q0 61 -30.5 103.5t-76.5 75t-100.5 62.5t-100.5 69t-77 93t-31 134q0 76 29 151.5t84 138t134 104.5t182 52l30 234h113l-64 -232q84 -4 143.5 -25.5t98.5 -49.5l-63 -109 q-33 23 -84.5 40t-122.5 17q-76 0 -132.5 -27.5t-93 -70.5t-54 -96t-17.5 -105q0 -61 31.5 -103t79.5 -74.5t103.5 -62.5t103.5 -69t80 -93t32 -136q0 -76 -27.5 -157t-85 -148.5t-142.5 -115.5t-200 -58l-31 -244h-118l67 242q-102 2 -172.5 21.5t-118.5 53.5z" />
<glyph unicode="%" horiz-adv-x="1763" d="M213 733q0 49 7 106.5t19.5 116t30 113.5t35.5 100q23 53 51.5 100.5t66.5 83.5t85 56.5t104 20.5t97.5 -22t63 -58.5t32.5 -85t10 -103.5q0 -49 -7 -105.5t-19.5 -113.5t-30 -112.5t-35.5 -100.5q-23 -53 -52.5 -101t-67.5 -84t-84 -56.5t-103 -20.5q-59 0 -98 21.5 t-63 57.5t-33 84t-9 103zM330 711q0 -66 20.5 -108t77.5 -42q68 0 114 61.5t74 145.5q14 41 30 97.5t28 115.5t20 115.5t8 99.5q0 66 -21.5 110t-78.5 44q-70 0 -116 -63.5t-76 -151.5q-14 -41 -28.5 -97.5t-26 -115t-18.5 -114.5t-7 -97zM487 12l773 1411l92 -26 l-770 -1411zM1030 246q0 49 7 106.5t19.5 115.5t30 113.5t35.5 100.5q23 53 51.5 100t66.5 83t85 56.5t105 20.5q57 0 97 -21.5t62.5 -57.5t32.5 -84t10 -103q0 -49 -7 -106.5t-19.5 -115t-29.5 -112.5t-36 -100q-23 -53 -52.5 -101.5t-67.5 -84.5t-84 -56t-103 -20 q-59 0 -98 21.5t-62.5 57t-33 83.5t-9.5 104zM1147 223q0 -66 20.5 -107.5t77.5 -41.5q68 0 115 61.5t76 145.5q14 41 29.5 97t27.5 115.5t19.5 116t7.5 99.5q0 66 -21.5 109.5t-79.5 43.5q-70 0 -116 -63.5t-76 -151.5q-14 -41 -28.5 -97t-26 -114.5t-18.5 -115t-7 -97.5z " />
<glyph unicode="&#x26;" horiz-adv-x="1282" d="M82 313q0 111 53 201t139 156q59 45 129 76.5t142 54.5v4q-104 31 -161.5 93.5t-57.5 162.5q0 68 27.5 133.5t85 117.5t141.5 85t198 33q94 0 168 -23t117 -55l-72 -101q-27 18 -81 37t-119 19q-78 0 -132.5 -22.5t-89 -58.5t-50 -81t-15.5 -88q0 -86 62.5 -135.5 t160.5 -49.5q68 0 142.5 14.5t148.5 38t144.5 52.5t133.5 59l29 -118q-45 -18 -114.5 -42t-129.5 -38l-161 -779q-59 -35 -163 -57t-227 -22q-211 0 -329.5 90t-118.5 243zM274 322q0 -104 73 -165t212 -61q66 0 113 9.5t86 25.5l139 668q-174 -39 -294 -81t-195 -106 q-66 -53 -100 -131t-34 -159z" />
<glyph unicode="'" horiz-adv-x="468" d="M258 870l70 514q41 41 96 41q57 0 80 -41l-150 -514h-96z" />
<glyph unicode="(" horiz-adv-x="753" d="M133 367q0 182 53.5 358t145.5 334q96 168 221 309t258 264l88 -55q-125 -135 -229.5 -279.5t-182.5 -306.5q-78 -166 -121.5 -344t-43.5 -362q0 -193 44 -367t121 -328l-90 -55q-121 193 -192.5 404t-71.5 428z" />
<glyph unicode=")" horiz-adv-x="753" d="M-113 -410q125 135 229.5 279.5t182.5 306.5q78 166 122 344t44 363q0 193 -44 366.5t-122 327.5l90 55q121 -193 192.5 -404.5t71.5 -428.5q0 -182 -53 -357.5t-145 -332.5q-96 -168 -221 -309.5t-259 -264.5z" />
<glyph unicode="*" horiz-adv-x="913" d="M279 1337q0 43 33.5 75t76.5 32q35 0 57.5 -22.5t22.5 -55.5q0 -43 -34 -74.5t-77 -31.5q-35 0 -57 22.5t-22 54.5zM307 1040q0 43 34 74t77 31q35 0 57.5 -21.5t22.5 -54.5q0 -43 -34 -75.5t-77 -32.5q-35 0 -57.5 23.5t-22.5 55.5zM535 1255q0 37 28.5 65t65.5 28 q31 0 50 -19.5t19 -48.5q0 -37 -28.5 -63.5t-65.5 -26.5q-31 0 -50 18.5t-19 46.5zM571 1522q0 43 34 74.5t77 31.5q35 0 58.5 -21.5t23.5 -54.5q0 -43 -34 -75.5t-77 -32.5q-35 0 -58.5 22.5t-23.5 55.5zM649 1040q0 43 34 74t77 31q35 0 57.5 -21.5t22.5 -54.5 q0 -43 -34 -75.5t-77 -32.5q-35 0 -57.5 23.5t-22.5 55.5zM795 1337q0 43 33.5 75t76.5 32q35 0 58.5 -22.5t23.5 -55.5q0 -43 -33.5 -74.5t-76.5 -31.5q-35 0 -58.5 22.5t-23.5 54.5z" />
<glyph unicode="+" d="M174 625l27 123h327l74 356h129l-72 -356h328l-24 -123h-330l-74 -361h-131l76 361h-330z" />
<glyph unicode="," horiz-adv-x="540" d="M-154 -346l277 506q25 25 56.5 40t72.5 15t57.5 -16.5t16.5 -38.5l-369 -506h-111z" />
<glyph unicode="-" horiz-adv-x="710" d="M143 616l31 144h465l-29 -144h-467z" />
<glyph unicode="." horiz-adv-x="524" d="M57 86q0 27 12.5 51.5t32 45t46 32.5t55.5 12q43 0 69.5 -25.5t26.5 -66.5q0 -27 -12.5 -52.5t-31.5 -45t-46 -31.5t-55 -12q-43 0 -70 25.5t-27 66.5z" />
<glyph unicode="/" horiz-adv-x="1011" d="M-182 -406l1175 2038l131 -57l-1175 -2038z" />
<glyph unicode="0" d="M123 401q0 80 12 170.5t33.5 180.5t51.5 175t65 156q35 72 80 135.5t101 110.5t122.5 74t144.5 27q90 0 150.5 -35t97.5 -93.5t52.5 -135t15.5 -162.5q0 -80 -12.5 -169.5t-34 -178.5t-50 -174t-63.5 -154q-35 -72 -80 -135.5t-101.5 -110.5t-123 -74.5t-146.5 -27.5 q-90 0 -150.5 33.5t-97 92t-52 135t-15.5 160.5zM287 358q0 -53 8 -99t27.5 -82t51.5 -56.5t79 -20.5q49 0 92 22.5t80 61.5t66.5 91.5t53.5 111.5q27 68 52.5 154t46 178t32 181t11.5 161q0 53 -8.5 100t-26.5 82t-50 55.5t-79 20.5q-51 0 -94 -23.5t-80 -63.5t-67.5 -94.5 t-55.5 -115.5q-27 -66 -52.5 -152t-45 -176t-30.5 -178t-11 -158z" />
<glyph unicode="1" d="M293 1079v113q193 25 310.5 87t174.5 130h127l-291 -1409h-182l244 1178q-35 -18 -81 -35t-98.5 -29t-105.5 -21.5t-98 -13.5z" />
<glyph unicode="2" d="M-27 0l645 707q37 41 75 87t68 97t48 105.5t18 113.5q0 90 -57 137t-178 47q-74 0 -146.5 -17t-128.5 -42l-24 117q74 35 165 56.5t185 21.5q186 0 283.5 -82.5t97.5 -217.5q0 -66 -23.5 -130t-61.5 -123.5t-84 -114.5t-91 -103l-485 -509h565l-31 -150h-840z" />
<glyph unicode="3" d="M-8 57l74 119q35 -23 104.5 -42t155.5 -19q90 0 160.5 31.5t119.5 83t76 117t27 134.5q0 68 -29 113t-77 70.5t-111.5 36t-133.5 6.5l21 102q98 8 176 36.5t132 74t83 102.5t29 123q0 74 -50.5 114.5t-146.5 40.5q-84 0 -155.5 -17t-127.5 -44l-24 113q66 35 155 56.5 t193 21.5q152 0 247 -66.5t95 -189.5q0 -78 -32.5 -142.5t-82 -114t-109 -84t-114.5 -49.5v-4q47 -12 92 -34.5t81 -58.5t58.5 -85t22.5 -113q0 -90 -36 -180t-108.5 -163.5t-180 -119.5t-248.5 -46q-100 0 -190.5 22.5t-145.5 54.5z" />
<glyph unicode="4" d="M70 322l24 116l770 971h174l-202 -981h114l-22 -106h-115l-65 -322h-168l67 322h-577zM221 428h449l123 592q8 41 16 79t16 66q8 35 17 64h-4q-18 -27 -41 -60q-20 -29 -47 -64.5t-60 -76.5z" />
<glyph unicode="5" d="M12 57l72 119q39 -23 108.5 -42t153.5 -19q70 0 138.5 25.5t123 74.5t87 120t32.5 161q0 61 -25.5 112t-84 83t-157 41t-241.5 -11l201 688h657l-28 -149h-533l-121 -431q125 14 222.5 -3t165 -61t102.5 -111.5t35 -149.5q0 -106 -43 -201.5t-119 -167.5t-180.5 -113.5 t-229.5 -41.5q-100 0 -189 21.5t-147 55.5z" />
<glyph unicode="6" d="M109 344q0 68 13 138.5t35.5 139t52.5 133t64 122.5q82 137 185.5 234t206 161.5t193.5 100.5t147 48l22 -121q-53 -16 -132 -47.5t-165 -88t-174 -143.5t-160 -216q47 16 96.5 26.5t104.5 10.5q80 0 148.5 -19.5t117.5 -59.5t78 -100.5t29 -142.5q0 -86 -31 -181 t-95.5 -175t-162.5 -132t-231 -52q-174 0 -258 99t-84 265zM274 338q0 -111 45.5 -173.5t147.5 -62.5q80 0 142.5 40t105.5 102.5t65.5 137t22.5 144.5q0 113 -64.5 164t-189.5 51q-66 0 -117 -12t-80 -24q-35 -84 -56.5 -183.5t-21.5 -183.5z" />
<glyph unicode="7" d="M102 0l811 1260h-651l31 149h872l-278 -438q-86 -135 -171 -277.5t-159 -272.5t-132 -239.5t-91 -181.5h-232z" />
<glyph unicode="8" d="M74 264q0 90 36.5 162t95 130t130.5 104.5t143 82.5q-104 68 -153.5 131.5t-49.5 147.5q0 80 35 152.5t96.5 130t145.5 91.5t182 34q70 0 129.5 -19.5t102.5 -55.5t66.5 -86.5t23.5 -109.5q0 -80 -30 -143.5t-79 -114.5t-111.5 -91t-125.5 -73q123 -82 178 -158.5 t55 -168.5q0 -90 -39 -168t-106.5 -136.5t-159.5 -92t-201 -33.5q-74 0 -139.5 18t-115.5 54t-79.5 89.5t-29.5 122.5zM238 285q0 -86 59 -136.5t152 -50.5q61 0 120.5 21.5t105.5 61.5t74.5 99.5t28.5 133.5q0 68 -41 129t-153 133q-61 -31 -123 -68t-112 -84t-80.5 -106.5 t-30.5 -132.5zM432 1032q0 -66 40 -116t134 -111q57 29 111.5 61.5t95.5 73.5t66.5 92t25.5 119q0 76 -46 123t-134 47q-61 0 -115.5 -22.5t-93.5 -62.5t-61.5 -92t-22.5 -112z" />
<glyph unicode="9" d="M133 106q53 16 132 48t165 89.5t174 144.5t160 216q-47 -16 -96.5 -26.5t-104.5 -10.5q-170 0 -270 87t-100 241q0 82 31.5 176t95 174t161 132.5t230.5 52.5q174 0 258 -97.5t84 -263.5q0 -68 -13.5 -138.5t-35 -140t-52 -134t-63.5 -121.5q-82 -137 -186.5 -235.5 t-207 -164t-193.5 -102.5t-146 -49zM358 895q0 -104 62.5 -163.5t191.5 -59.5q66 0 116 11t79 24q16 37 30.5 83t25.5 95t18.5 99t7.5 95q0 109 -46 171.5t-149 62.5q-86 0 -149.5 -43t-105.5 -107.5t-61.5 -137.5t-19.5 -130z" />
<glyph unicode=":" horiz-adv-x="524" d="M57 86q0 27 12.5 51.5t32 45t46 32.5t55.5 12q43 0 69.5 -25.5t26.5 -66.5q0 -27 -12.5 -52.5t-31.5 -45t-46 -31.5t-55 -12q-43 0 -70 25.5t-27 66.5zM190 715q0 27 11.5 51.5t32 44.5t46 32.5t54.5 12.5q43 0 69.5 -26.5t26.5 -67.5q0 -53 -43 -96t-100 -43 q-43 0 -70 25.5t-27 66.5z" />
<glyph unicode=";" horiz-adv-x="540" d="M-154 -346l277 506q25 25 56.5 40t72.5 15t57.5 -16.5t16.5 -38.5l-369 -506h-111zM207 715q0 27 11 51.5t31.5 44.5t46.5 32.5t54 12.5q43 0 69.5 -25.5t26.5 -66.5q0 -27 -11 -52.5t-31.5 -45t-46 -31.5t-54.5 -12q-43 0 -69.5 25.5t-26.5 66.5z" />
<glyph unicode="&#x3c;" d="M154 631l22 119l862 346l-30 -142l-695 -270l584 -268l-27 -129z" />
<glyph unicode="=" d="M139 440l25 123h784l-24 -123h-785zM215 805l25 123h784l-25 -123h-784z" />
<glyph unicode="&#x3e;" d="M98 287l29 143l696 268l-583 271l26 127l717 -346l-25 -119z" />
<glyph unicode="?" horiz-adv-x="821" d="M193 86q0 27 11 51.5t31.5 45t46 32.5t54.5 12q43 0 69.5 -25.5t26.5 -66.5q0 -27 -11 -52.5t-31.5 -45t-46.5 -31.5t-54 -12q-43 0 -69.5 25.5t-26.5 66.5zM260 1352q59 33 140 55.5t171 22.5q160 0 249 -68t89 -197q0 -80 -31.5 -145.5t-84 -116.5t-120 -88t-138.5 -57 l-82 -295h-136l45 356q61 14 125 40t116 66t85 93t33 125t-44 114.5t-161 42.5q-66 0 -126 -19t-97 -38z" />
<glyph unicode="@" horiz-adv-x="1796" d="M111 264q0 123 32.5 244t90 233.5t134 213t167.5 180.5q154 135 335 215t377 80q111 0 201 -30t154.5 -86.5t99.5 -138.5t35 -184q0 -74 -16.5 -149.5t-44 -149.5t-64.5 -143.5t-76 -126.5q-41 -61 -88 -113.5t-98.5 -92.5t-107.5 -62.5t-114 -22.5q-61 0 -96 46t-14 145 q-82 -100 -167 -143.5t-185 -43.5q-98 0 -144.5 63.5t-46.5 157.5q0 63 19.5 131t50 133.5t70.5 124t81 103.5q66 72 145 119t167 47q53 0 90 -15.5t60.5 -42t34.5 -62.5t13 -75l66 160h100l-211 -500q-23 -53 -36 -104t-13 -99q0 -27 13.5 -44t45.5 -17q33 0 72 19.5 t78 53.5t78 81t74 100q72 111 124 244t52 268q0 178 -106.5 278.5t-299.5 100.5q-180 0 -347 -76t-306 -203q-84 -76 -154.5 -169t-124 -197.5t-83 -218t-29.5 -228.5q0 -231 145 -352t397 -121q117 0 216.5 19.5t189.5 56.5t174 93t168 130l39 -57q-84 -78 -171 -136.5 t-182.5 -98.5t-202 -59t-229.5 -19q-143 0 -259.5 34.5t-199.5 102t-128 169t-45 234.5zM588 371q0 -66 28.5 -109t100.5 -43q82 0 155.5 55.5t131.5 133.5q27 35 52 79.5t45.5 93t34 97.5t13.5 94q0 80 -38 120t-95 40q-72 0 -135.5 -42t-116.5 -106q-33 -39 -64.5 -88 t-56.5 -104t-40 -112.5t-15 -108.5z" />
<glyph unicode="A" horiz-adv-x="1200" d="M-66 0l768 1409h172l183 -1409h-189l-45 422h-483l-223 -422h-183zM395 535h422l-53 534q-4 37 -5 68.5t-3 54.5q-2 27 -2 47h-4q-8 -23 -19 -49q-20 -51 -55 -121z" />
<glyph unicode="B" horiz-adv-x="1155" d="M61 57l267 1295q74 35 175 56.5t212 21.5q201 0 305 -79t104 -208q0 -74 -28.5 -140.5t-76.5 -119t-111.5 -88t-133.5 -47.5v-5q51 -10 98.5 -34.5t83 -63.5t56 -89t20.5 -110q0 -78 -35.5 -161.5t-87.5 -141.5q-82 -88 -203.5 -125.5t-269.5 -37.5q-119 0 -217 21.5 t-158 55.5zM254 131q39 -16 81 -24.5t107 -8.5q92 0 174 28t140 89q47 49 69.5 117.5t22.5 136.5q0 119 -92 172t-283 53h-102zM389 788h103q123 0 206.5 24t137.5 73q51 47 77.5 114.5t26.5 137.5q0 94 -63.5 138t-180.5 44q-63 0 -113.5 -9.5t-88.5 -21.5z" />
<glyph unicode="C" horiz-adv-x="983" d="M127 473q0 104 20.5 215t60.5 215.5t98.5 197.5t131.5 165q84 78 182.5 121t208.5 43q92 0 157 -24t99 -54l-71 -105q-23 16 -67 32.5t-103 16.5q-88 0 -159 -36.5t-130 -102.5q-55 -61 -98 -144t-74 -174t-46 -184.5t-15 -175.5q0 -172 62 -264t198 -92q61 0 119.5 19.5 t89.5 39.5l28 -125q-43 -33 -119.5 -55t-164.5 -22q-102 0 -179 36.5t-128.5 102t-76 156t-24.5 198.5z" />
<glyph unicode="D" horiz-adv-x="1216" d="M61 57l269 1295q78 37 169 57.5t210 20.5q236 0 349 -132.5t113 -355.5q0 -86 -17 -186.5t-49 -198.5t-77 -188t-100 -158q-41 -49 -92.5 -91t-116 -73t-143 -49t-173.5 -18q-104 0 -197 22.5t-145 54.5zM266 139q27 -10 68 -18t94 -8q225 0 360 188q43 61 80 146 t62.5 177.5t40 185.5t14.5 169q0 164 -71.5 247t-225.5 83q-53 0 -101 -8.5t-87 -22.5z" />
<glyph unicode="E" horiz-adv-x="913" d="M57 0l291 1409h653l-26 -127h-465l-100 -491h415l-24 -125h-418l-111 -539h465l-26 -127h-654z" />
<glyph unicode="F" horiz-adv-x="897" d="M57 0l291 1409h649l-26 -127h-461l-100 -491h413l-24 -125h-416l-137 -666h-189z" />
<glyph unicode="G" horiz-adv-x="1208" d="M127 498q0 86 15.5 177t46 179t74.5 170t99 150q111 129 246 192.5t283 63.5q106 0 184 -22t131 -56l-73 -109q-29 18 -84.5 36.5t-145.5 18.5q-123 0 -229.5 -55t-186.5 -172q-39 -55 -70.5 -126t-53 -147.5t-34 -155.5t-12.5 -148q0 -190 83 -287.5t208 -97.5 q72 0 121 11t74 23l108 529h-239l24 119h420l-151 -734q-72 -37 -161 -57t-210 -20q-100 0 -186 32.5t-148.5 98t-97.5 162t-35 225.5z" />
<glyph unicode="H" horiz-adv-x="1228" d="M57 0l291 1409h189l-127 -618h528l127 618h188l-290 -1409h-189l137 666h-528l-137 -666h-189z" />
<glyph unicode="I" horiz-adv-x="528" d="M63 0l291 1409h191l-291 -1409h-191z" />
<glyph unicode="J" horiz-adv-x="528" d="M-285 -453l31 140q55 14 107.5 49t97.5 85t78.5 115.5t50.5 143.5l274 1329h191l-273 -1319q-25 -121 -81 -216t-130.5 -163.5t-164 -109.5t-181.5 -54z" />
<glyph unicode="K" horiz-adv-x="1083" d="M63 0l293 1409h187l-135 -653h4l592 653h202l-631 -666l363 -743h-207l-328 729h-4l-149 -729h-187z" />
<glyph unicode="L" horiz-adv-x="851" d="M63 0l291 1409h189l-264 -1282h423l-26 -127h-613z" />
<glyph unicode="M" horiz-adv-x="1609" d="M8 0l459 1409h201l71 -1026q2 -35 3 -63.5t1 -49.5v-43h5q8 18 16 43q8 20 20.5 49t28.5 64l504 1026h201l-125 -1409h-174l112 1059q4 33 6 63.5t6 53.5q4 27 9 49h-4q-8 -23 -19 -49q-10 -23 -22.5 -53.5t-28.5 -63.5l-520 -1059h-125l-78 1061q-6 61 -6 113v51h-4 l-10 -51q-4 -23 -12.5 -52.5t-18.5 -60.5l-332 -1061h-164z" />
<glyph unicode="N" horiz-adv-x="1331" d="M57 0l291 1409h193l374 -989q12 -33 21.5 -59.5t15.5 -47.5q8 -23 13 -43h4q2 20 6 45q4 23 8 49.5t12 61.5l203 983h158l-291 -1409h-158l-389 1026q-12 33 -22.5 63.5t-18.5 55.5q-8 29 -16 53h-4q-4 -25 -8 -53q-4 -25 -9.5 -55.5t-11.5 -65.5l-213 -1024h-158z" />
<glyph unicode="O" horiz-adv-x="1249" d="M127 444q0 88 15.5 186.5t43 196t68.5 186.5t90 161q84 117 201 186.5t268 69.5q104 0 179 -34t122 -95.5t68.5 -145.5t21.5 -184q0 -88 -15 -188.5t-43 -199t-68 -190.5t-89 -162q-82 -117 -197.5 -184t-269.5 -67q-104 0 -179 33.5t-123 95t-70.5 147.5t-22.5 188z M309 418q0 -63 11.5 -117.5t38 -94.5t70.5 -62.5t110 -22.5q111 0 188.5 64.5t132.5 164.5q33 61 62.5 144.5t52 173.5t35 178t12.5 160q0 63 -10.5 117.5t-36 94t-68.5 62.5t-106 23q-106 0 -184 -62.5t-136 -161.5q-37 -63 -68.5 -146t-54 -173t-36 -179t-13.5 -163z" />
<glyph unicode="P" d="M57 0l281 1352q68 35 160 56.5t209 21.5q207 0 305 -90.5t98 -235.5q0 -90 -33 -180t-90 -158q-74 -86 -191.5 -138.5t-287.5 -52.5q-37 0 -74 3.5t-72 7.5l-120 -586h-185zM387 700q29 -4 60.5 -6t62.5 -2q125 0 208 40t132 112q39 55 59.5 127.5t20.5 140.5 q0 98 -59.5 151.5t-188.5 53.5q-51 0 -100.5 -9.5t-73.5 -19.5z" />
<glyph unicode="Q" horiz-adv-x="1249" d="M127 444q0 88 15.5 186.5t43 196t68.5 186.5t90 161q86 119 203 187.5t266 68.5q104 0 179 -34t122 -95.5t68.5 -145.5t21.5 -184q0 -88 -15 -188.5t-43 -199t-68 -190.5t-89 -162q-92 -129 -217 -192l176 -303l-168 -125l-127 387q-61 -18 -131 -18q-104 0 -179 33.5 t-123 95t-70.5 147.5t-22.5 188zM309 418q0 -63 11.5 -117.5t38 -94.5t70.5 -62.5t110 -22.5q111 0 188.5 64.5t132.5 164.5q33 61 62.5 144.5t52 173.5t35 178t12.5 160q0 63 -10.5 117.5t-36 94t-68.5 62.5t-106 23q-113 0 -187.5 -62.5t-132.5 -161.5q-37 -63 -68.5 -146 t-54 -173t-36 -179t-13.5 -163z" />
<glyph unicode="R" horiz-adv-x="1126" d="M63 0l281 1352q72 35 164 56.5t201 21.5q201 0 306 -88.5t105 -235.5q0 -94 -38 -183t-103 -155q-72 -72 -171 -109.5t-216 -37.5v-5l338 -616h-205l-336 659h-4l-137 -659h-185zM395 702q16 -4 47 -8t68 -4q211 0 321 123q53 57 78 137t25 158q0 211 -250 211 q-53 0 -92 -7t-76 -24z" />
<glyph unicode="S" horiz-adv-x="948" d="M-8 57l71 123q33 -23 87.5 -41t138.5 -18q76 0 137 25.5t105 70.5t68 102.5t24 122.5q0 61 -31 103.5t-77 75t-100.5 62.5t-100.5 69t-76.5 93t-30.5 134t31.5 160t93 144.5t150.5 105.5t204 41q96 0 165 -23t110 -55l-66 -111q-33 23 -84 40t-123 17q-76 0 -131 -27.5 t-92 -70.5t-55.5 -96t-18.5 -103q0 -61 32 -103t80 -74.5t104.5 -62.5t104.5 -69t79.5 -93t31.5 -136q0 -80 -31.5 -166t-96 -156.5t-161 -115.5t-227.5 -45q-111 0 -188.5 21.5t-126.5 55.5z" />
<glyph unicode="T" horiz-adv-x="874" d="M225 1282l27 127h743l-24 -127h-281l-264 -1282h-188l266 1282h-279z" />
<glyph unicode="U" horiz-adv-x="1198" d="M129 307q0 23 3 47.5t7 48.5l209 1006h189l-209 -1006q-10 -47 -11 -79q0 -96 54.5 -146.5t144.5 -50.5q57 0 110.5 19.5t97.5 54.5t75.5 86t44.5 116l207 1006h172l-207 -1008q-18 -92 -64.5 -168.5t-114 -133t-155.5 -88t-188 -31.5q-174 0 -269.5 90t-95.5 237z" />
<glyph unicode="V" horiz-adv-x="1093" d="M233 1409h197l55 -999q2 -33 2 -66t2 -59q0 -31 3 -60h4q10 29 22 60q10 27 24.5 59.5t30.5 65.5l474 999h182l-701 -1409h-166z" />
<glyph unicode="W" horiz-adv-x="1681" d="M260 1409h189l-9 -1026q0 -31 -1 -59.5t-3 -51.5q-2 -27 -4 -49h4q8 23 19 49q8 23 19 51.5t26 59.5l456 1026h144l28 -1026v-57.5t-2 -51.5q-2 -27 -2 -51h4q10 25 19 51q8 23 18.5 51.5t22.5 57.5l424 1026h178l-621 -1409h-165l-35 983q-2 31 -1 59.5t1 51.5 q0 25 2 47h-4q-6 -23 -15 -47q-8 -23 -19 -50.5t-26 -60.5l-444 -983h-166z" />
<glyph unicode="X" horiz-adv-x="1067" d="M-57 0l536 729l-200 680h196l127 -535h4l379 535h186l-491 -664l231 -745h-202l-154 586h-4l-408 -586h-200z" />
<glyph unicode="Y" horiz-adv-x="1050" d="M231 1409h195l145 -637h4l424 637h189l-549 -784l-129 -625h-188l129 625z" />
<glyph unicode="Z" horiz-adv-x="894" d="M-49 0l778 1282h-483l26 127h723l-770 -1282h520l-26 -127h-768z" />
<glyph unicode="[" horiz-adv-x="712" d="M-31 -440l424 2048h443l-23 -107h-281l-378 -1833h278l-20 -108h-443z" />
<glyph unicode="\" horiz-adv-x="1179" d="M258 1571l135 61l557 -2038l-135 -59z" />
<glyph unicode="]" horiz-adv-x="712" d="M-90 -440l22 108h281l377 1833h-279l23 107h442l-424 -2048h-442z" />
<glyph unicode="^" horiz-adv-x="1191" d="M295 979l383 395q27 29 54.5 40t51.5 11q25 0 47.5 -12t38.5 -39l220 -395l-78 -66l-252 373l-404 -373z" />
<glyph unicode="_" d="M-205 -403l25 116h1122l-24 -116h-1123z" />
<glyph unicode="`" horiz-adv-x="434" d="M211 1503q12 18 34.5 27.5t49.5 9.5q29 0 56.5 -9t45.5 -26l88 -280h-94z" />
<glyph unicode="a" horiz-adv-x="1093" d="M100 375q0 66 12.5 137.5t36 140t55.5 133t72 115.5q82 104 197 163.5t264 59.5q104 0 190.5 -24.5t129.5 -52.5l-205 -990q-53 -31 -143.5 -54t-210.5 -23q-199 0 -298.5 108.5t-99.5 286.5zM281 371q0 -125 54 -199t183 -74q53 0 98.5 9.5t73.5 25.5l176 852 q-18 10 -55 20.5t-92 10.5q-98 0 -177 -49t-136 -142q-29 -47 -52.5 -103t-40 -115.5t-24.5 -120t-8 -115.5z" />
<glyph unicode="b" horiz-adv-x="1085" d="M53 57l322 1551h178l-111 -541q37 20 94.5 34.5t135.5 14.5q160 0 249 -100.5t89 -282.5q0 -66 -12.5 -137.5t-35 -141t-54 -134t-70.5 -115.5q-82 -109 -198 -167t-267 -58q-96 0 -185.5 21.5t-134.5 55.5zM248 121q27 -14 62.5 -19.5t78.5 -5.5q104 0 182 48.5 t134 136.5q29 45 52 103t39.5 119.5t25.5 124t9 115.5q0 57 -11 106.5t-37.5 85.5t-67.5 56.5t-99 20.5q-61 0 -109 -11.5t-87 -31.5z" />
<glyph unicode="c" horiz-adv-x="860" d="M104 389q0 61 10.5 129t30 133.5t47 127t62.5 112.5q78 117 181.5 175t221.5 58q86 0 150.5 -25.5t89.5 -51.5l-68 -97q-18 14 -57 31.5t-92 17.5q-92 0 -160.5 -46t-120.5 -132q-27 -43 -47 -97t-35.5 -112.5t-23.5 -118t-8 -110.5q0 -125 49 -196.5t147 -71.5 q53 0 103.5 18.5t79.5 40.5l24 -117q-37 -31 -105.5 -54t-150.5 -23q-76 0 -136 29.5t-103 82.5t-66 129t-23 168z" />
<glyph unicode="d" d="M98 375q0 63 12.5 134t34 138.5t52 130t69.5 113.5q84 111 198 169t251 58q45 0 91 -7t81 -17l104 514h180l-321 -1551q-53 -31 -143.5 -54t-210.5 -23q-193 0 -295.5 105t-102.5 290zM276 371q0 -125 55.5 -199t184.5 -74q53 0 97 9.5t73 25.5l180 862q-61 18 -131 19 q-115 0 -196.5 -54.5t-137.5 -140.5q-29 -45 -52 -100t-39.5 -114.5t-25 -120t-8.5 -113.5z" />
<glyph unicode="e" horiz-adv-x="1073" d="M100 375q0 61 10.5 128.5t31 134.5t47 129t61.5 114q80 121 190.5 182t237.5 61q158 0 247 -88t89 -266q0 -43 -5 -89t-18 -99l-715 -101q-6 -44 -6 -86q0 -27 2 -53q6 -68 34 -120t82 -82.5t144 -30.5q92 0 166 22.5t121 44.5l23 -119q-57 -31 -146.5 -54t-195.5 -23 q-180 0 -290 96t-110 299zM289 580l547 82q8 39 12 71.5t4 61.5q0 113 -50 164t-143 51q-82 0 -156.5 -48.5t-131.5 -146.5q-27 -47 -47.5 -105.5t-34.5 -129.5z" />
<glyph unicode="f" horiz-adv-x="643" d="M104 0l205 993h-125l23 111h127l31 156q18 96 60 162.5t96 108.5t117.5 60.5t127.5 18.5h22.5t22.5 -2l-25 -115q-31 0 -67.5 -10t-70.5 -35t-60.5 -67t-38.5 -103l-35 -174h193l-23 -111h-195l-204 -993h-181z" />
<glyph unicode="g" horiz-adv-x="1085" d="M-14 -383l73 111q39 -23 106.5 -40.5t145.5 -17.5q74 0 130.5 22.5t98.5 61.5t68.5 91.5t38.5 111.5l19 76q-39 -20 -95.5 -33.5t-128.5 -13.5q-164 0 -256 100t-92 279q0 129 45 270t119 246q82 115 201 179t272 64q106 0 191.5 -23.5t126.5 -51.5l-222 -1072 q-43 -211 -175 -324.5t-335 -113.5q-98 0 -187 21.5t-144 56.5zM270 346q0 -123 53.5 -187.5t176.5 -64.5q53 0 102 12.5t84 32.5l176 848q-18 10 -53 19.5t-94 9.5q-104 0 -184 -55.5t-140 -155.5q-27 -47 -49.5 -103.5t-37.5 -118t-24.5 -123t-9.5 -114.5z" />
<glyph unicode="h" horiz-adv-x="1093" d="M41 0l334 1608h180l-115 -555q49 29 124 50t147 21q150 0 224.5 -69.5t74.5 -188.5q0 -45 -9 -86l-161 -780h-181l164 791q6 31 6 59q0 33 -9 61.5t-29.5 50t-55.5 35t-86 13.5q-61 0 -116.5 -16.5t-112.5 -45.5l-199 -948h-180z" />
<glyph unicode="i" horiz-adv-x="485" d="M49 0l230 1104h178l-228 -1104h-180zM324 1395q0 45 37.5 81.5t89.5 36.5q39 0 63.5 -23t24.5 -56q0 -47 -39 -83t-90 -36q-39 0 -62.5 22.5t-23.5 57.5z" />
<glyph unicode="j" horiz-adv-x="497" d="M-285 -453l27 129q123 41 212 143.5t120 250.5l215 1034h180l-211 -1020q-45 -217 -188.5 -356.5t-354.5 -180.5zM336 1395q0 45 39 81.5t90 36.5q39 0 62.5 -23t23.5 -56q0 -47 -38 -83t-89 -36q-39 0 -63.5 22.5t-24.5 57.5z" />
<glyph unicode="k" horiz-adv-x="976" d="M51 0l334 1608h176l-209 -1016h4l498 512h195l-535 -522l352 -582h-202l-314 569h-4l-119 -569h-176z" />
<glyph unicode="l" horiz-adv-x="491" d="M51 0l334 1608h178l-334 -1608h-178z" />
<glyph unicode="m" horiz-adv-x="1712" d="M41 0l217 1047q80 35 179.5 56t219.5 21q119 0 193 -36.5t111 -96.5q59 53 156 93t214 40q82 0 139.5 -19.5t92 -54t51 -81t16.5 -99.5q0 -18 -2 -37.5t-6 -37.5l-164 -795h-180l166 795q6 33 6 65q0 61 -38 104.5t-138 43.5q-70 0 -136.5 -30t-111.5 -77l-186 -901h-181 l168 803q4 14 4 27.5v25.5q0 72 -48 112t-154 40q-59 0 -108.5 -9.5t-96.5 -27.5l-203 -971h-180z" />
<glyph unicode="n" horiz-adv-x="1093" d="M41 0l217 1047q78 35 181.5 56t226.5 21q94 0 159.5 -20.5t107.5 -55t60.5 -82t18.5 -100.5q0 -20 -2 -40.5t-6 -41.5l-164 -784h-181l166 795q6 33 6 63q0 61 -43 105.5t-151 44.5q-59 0 -112.5 -10.5t-100.5 -26.5l-203 -971h-180z" />
<glyph unicode="o" horiz-adv-x="1083" d="M98 352q0 63 10.5 134t30 140.5t46 135t59.5 119.5q72 115 176 179t246 64q176 0 258 -102t82 -268q0 -63 -10.5 -134t-30 -140.5t-46 -135t-59.5 -119.5q-72 -113 -176 -179t-246 -66q-176 0 -258 103t-82 269zM272 336q0 -49 9.5 -91t30 -73t55 -49.5t88.5 -18.5 q98 0 161.5 56.5t106.5 142.5q23 45 43 106.5t35.5 127t24 129t8.5 116.5q0 49 -9.5 90t-30 72t-55 48.5t-86.5 17.5q-96 0 -162.5 -57.5t-109.5 -145.5q-23 -47 -43.5 -106.5t-34.5 -124t-22.5 -127t-8.5 -113.5z" />
<glyph unicode="p" horiz-adv-x="1085" d="M-49 -440l309 1487q63 33 153.5 55t200.5 22q193 0 293.5 -104.5t100.5 -286.5q0 -63 -11.5 -130.5t-33 -135.5t-50 -129.5t-65.5 -112.5q-84 -117 -198.5 -179t-256.5 -62q-47 0 -94 8t-76 18l-94 -450h-178zM246 117q45 -20 125 -21q111 0 196.5 53.5t145.5 153.5 q27 45 49 101.5t37.5 117t23.5 121t8 113.5q0 123 -55 190.5t-184 67.5q-51 0 -91 -8.5t-75 -24.5z" />
<glyph unicode="q" horiz-adv-x="1085" d="M96 365q0 129 44 270t118 246q82 115 201 179t276 64q104 0 188.5 -24.5t129.5 -52.5l-310 -1487h-176l99 473q-41 -23 -99.5 -36t-128.5 -13q-166 0 -254 102t-88 279zM272 350q0 -127 55.5 -190.5t172.5 -63.5q53 0 103 12.5t85 30.5l174 848q-18 10 -52 19.5t-93 9.5 q-102 0 -183 -53.5t-139 -151.5q-27 -47 -49 -104.5t-38.5 -119t-26 -123t-9.5 -114.5z" />
<glyph unicode="r" horiz-adv-x="665" d="M41 0l217 1047q66 33 171.5 55t240.5 22q23 0 40 -1t38 -3l-70 -137q-66 13 -125 13h-21q-68 -3 -110 -27l-201 -969h-180z" />
<glyph unicode="s" horiz-adv-x="829" d="M-18 57l69 113q27 -23 79 -41t126 -18q55 0 102.5 20.5t81 53t52 75.5t18.5 90q0 51 -25.5 84t-63.5 56.5t-82 44t-82 49t-63.5 71.5t-25.5 113q0 68 27.5 132.5t79 113.5t124 79.5t162.5 30.5q82 0 142.5 -21.5t103.5 -55.5l-64 -99q-27 23 -72.5 39.5t-101.5 16.5 q-49 0 -91 -17.5t-71.5 -47.5t-47 -67.5t-17.5 -80.5q0 -51 26.5 -83t65.5 -55.5t85 -44t85 -50.5t65.5 -73t26.5 -112q0 -76 -30.5 -146.5t-88 -126t-139.5 -88t-186 -32.5q-82 0 -154.5 21.5t-115.5 55.5z" />
<glyph unicode="t" horiz-adv-x="661" d="M154 197q0 18 2 37.5t6 37.5l147 721h-125l23 111h127l51 254l195 55l-66 -309h191l-25 -111h-191l-147 -721q-6 -29 -6 -55q0 -47 23.5 -76.5t82.5 -29.5q14 0 30.5 3t27.5 7l-23 -117q-16 -6 -42.5 -11t-59.5 -5q-61 0 -103.5 16t-68 45t-37.5 67t-12 81z" />
<glyph unicode="u" horiz-adv-x="1073" d="M102 244q0 23 2 47t9 51l157 762h181l-160 -768q-4 -18 -6 -39t-2 -37q0 -33 9 -60.5t30.5 -48t57.5 -33t89 -12.5q123 0 203 35l198 963h181l-217 -1047q-61 -35 -164 -56t-226 -21q-180 0 -261 69.5t-81 194.5z" />
<glyph unicode="v" horiz-adv-x="1019" d="M193 1104h186l70 -793q2 -29 3 -52t1 -42q0 -23 -2 -39h4q4 16 12 39q6 18 15.5 42t23.5 52l399 793h174l-585 -1104h-164z" />
<glyph unicode="w" horiz-adv-x="1601" d="M205 1104h178l29 -793v-53.5t-2 -40.5q-2 -20 -2 -37h4q4 16 12 37q6 16 15.5 41t25.5 53l389 793h154l53 -793q2 -25 2 -48v-42q0 -23 -2 -41h4l14 43q6 18 15.5 42t19.5 48l363 791h170l-543 -1104h-158l-57 788q-2 25 -2 47.5v41.5q0 23 2 41h-4q-4 -16 -13 -39 q-6 -18 -15 -42t-21 -49l-390 -788h-157z" />
<glyph unicode="x" horiz-adv-x="978" d="M-49 0l463 575l-197 529h178l133 -402h4l304 402h178l-422 -524l225 -580h-188l-150 446h-4l-332 -446h-192z" />
<glyph unicode="y" horiz-adv-x="1021" d="M59 -440l273 442l-139 1102h188l63 -795q2 -29 2 -53.5v-42.5q0 -23 -2 -41h5q4 18 12 41q12 39 43 96l401 795h174l-825 -1544h-195z" />
<glyph unicode="z" horiz-adv-x="862" d="M-39 0l666 993h-426l24 111h660l-658 -991h467l-22 -113h-711z" />
<glyph unicode="{" horiz-adv-x="770" d="M133 625l21 100q160 8 198 201l82 393q18 84 57 140.5t96.5 89t130.5 46t159 13.5l-21 -99q-102 0 -172 -39.5t-92 -152.5l-80 -391q-14 -72 -37.5 -116t-52.5 -71.5t-62.5 -41t-68.5 -21.5v-4q55 -14 90 -58.5t35 -115.5q0 -16 -2 -36t-6 -40l-76 -363q-4 -20 -6 -38.5 t-2 -34.5q0 -147 186 -148l-23 -100q-152 0 -236.5 60.5t-84.5 189.5q0 41 8 80l74 354q4 23 6 43t2 39q0 115 -123 121z" />
<glyph unicode="|" horiz-adv-x="452" d="M-45 -440l424 2048h149l-424 -2048h-149z" />
<glyph unicode="}" horiz-adv-x="770" d="M-43 -262l20 100q111 0 176.5 46t88.5 151l82 387q14 63 35.5 108t49 74t61.5 44.5t73 23.5v4q-53 12 -89 54t-36 118q0 31 10 78l78 372q4 18 6 36t2 34q0 74 -45 107.5t-143 33.5l20 99q70 0 129.5 -13.5t102.5 -43t67.5 -75.5t24.5 -114q0 -18 -2 -37.5t-6 -40.5 l-74 -358q-10 -51 -10 -82q0 -63 33.5 -89t90.5 -30l-20 -100q-158 -8 -199 -203l-82 -385q-18 -90 -58 -147.5t-96.5 -91.5t-130 -47t-159.5 -13z" />
<glyph unicode="~" horiz-adv-x="1193" d="M207 657q45 74 107.5 119t150.5 45q59 0 102 -20.5t80 -45t74 -45t86 -20.5q76 0 120 42t81 102l51 -113q-35 -74 -98.5 -119t-153.5 -45q-55 0 -96 20.5t-78 45t-76 45t-92 20.5q-76 0 -125 -40t-88 -99z" />
<glyph unicode="&#xa1;" horiz-adv-x="612" d="M23 -440l235 946h135l-157 -946h-213zM279 836q0 27 11 51t31.5 44.5t46 33t54.5 12.5q43 0 69.5 -26.5t26.5 -67.5q0 -53 -43 -96.5t-100 -43.5q-43 0 -69.5 26t-26.5 67z" />
<glyph unicode="&#xa2;" d="M225 563q0 127 48.5 258t134.5 223q123 129 286 148l27 215h125l-60 -213q59 -2 115.5 -17.5t87.5 -41.5l-57 -95q-23 18 -62 30.5t-94 12.5q-76 0 -136 -30.5t-108 -83.5q-31 -37 -55 -86t-41.5 -102.5t-26 -108t-8.5 -103.5q0 -113 51.5 -173t159.5 -60q53 0 101.5 13 t77.5 36l22 -109q-39 -27 -98.5 -43t-134.5 -18l-29 -215h-125l66 219q-121 16 -194 104.5t-73 239.5z" />
<glyph unicode="&#xa3;" d="M59 0q104 102 189.5 230t111.5 257q10 53 13.5 93.5t1.5 95.5h-199l23 106h168q-6 61 -6.5 132t16.5 145q16 80 56 147.5t103.5 116.5t146.5 78t185 29q92 0 170 -23t115 -49l-66 -109q-29 16 -85 33.5t-128 17.5q-70 0 -126 -22.5t-99 -61t-70.5 -91t-39.5 -113.5 q-10 -55 -12.5 -109.5t3.5 -120.5h279l-23 -106h-256q2 -53 -4 -97t-16 -92q-10 -51 -33.5 -104t-49.5 -99t-51.5 -82t-39.5 -52h590l-31 -150h-836z" />
<glyph unicode="&#xa4;" d="M63 328l175 145q-41 70 -41 160q0 86 36.5 162.5t96.5 136.5l-119 149l78 66l121 -150q55 37 116.5 58.5t126.5 21.5q129 0 215 -76l172 144l66 -78l-172 -145q37 -68 37 -152q0 -86 -37 -166t-96 -139l120 -150l-81 -63l-117 147q-53 -37 -115.5 -58.5t-128.5 -21.5 t-119 20.5t-94 55.5l-174 -143zM322 643q0 -90 55 -148.5t149 -58.5q61 0 120 26.5t103 71t71.5 102t27.5 118.5q0 92 -55.5 151.5t-151.5 59.5q-61 0 -119.5 -27t-102.5 -72t-70.5 -103t-26.5 -120z" />
<glyph unicode="&#xa5;" d="M100 555l19 94l352 -14l-59 205l-256 -17l20 92l219 -14l-143 508h184l148 -653h4l430 653h178l-356 -508l225 14l-18 -92l-248 17l-144 -205l355 14l-19 -94l-352 20l-119 -575h-176l119 575z" />
<glyph unicode="&#xa6;" horiz-adv-x="452" d="M-45 -440l166 809h151l-168 -809h-149zM211 799l168 809h149l-166 -809h-151z" />
<glyph unicode="&#xa7;" d="M49 -383l68 107q23 -20 71 -40t109 -20q102 0 170 61.5t68 155.5q0 33 -15.5 68t-62.5 82l-176 178q-66 66 -91.5 130t-25.5 132q0 82 25.5 146.5t70.5 115.5t103.5 92t125.5 78q-80 92 -79 199q0 66 26.5 125t73.5 104t114.5 72t149.5 27t145.5 -25t96.5 -53l-62 -95 q-23 16 -66.5 36t-103.5 20q-90 0 -152.5 -56.5t-62.5 -148.5q0 -41 20.5 -83t76.5 -99l137 -140q70 -72 99.5 -134t29.5 -132q0 -78 -27.5 -141.5t-73 -113.5t-104.5 -91t-123 -74q55 -59 75.5 -112.5t20.5 -100.5q0 -63 -25.5 -125.5t-75.5 -111.5t-125 -80t-173 -31 q-86 0 -148.5 23.5t-103.5 54.5zM309 514q0 -113 90 -203l133 -133q49 27 93.5 57.5t78 68.5t53 84.5t19.5 107.5q0 49 -17.5 94t-64.5 92l-141 145q-49 -27 -93 -56.5t-78 -67t-53.5 -84t-19.5 -105.5z" />
<glyph unicode="&#xa8;" horiz-adv-x="434" d="M127 1333q0 41 35 74t78 33q35 0 55 -21.5t20 -52.5q0 -41 -32.5 -72.5t-79.5 -31.5q-35 0 -55.5 20.5t-20.5 50.5zM467 1333q0 41 34 74t77 33q35 0 56 -21.5t21 -52.5q0 -41 -32.5 -72.5t-79.5 -31.5q-35 0 -55.5 20.5t-20.5 50.5z" />
<glyph unicode="&#xa9;" horiz-adv-x="1703" d="M152 567q0 170 73.5 326t196.5 275.5t280.5 190.5t327.5 71q133 0 243.5 -45.5t190.5 -125t124 -188t44 -233.5q0 -113 -33.5 -220.5t-94 -203t-143.5 -175t-181.5 -138t-207 -90t-220.5 -31.5q-133 0 -244 45t-189.5 123.5t-122.5 186t-44 232.5zM244 573 q0 -109 36.5 -201.5t104.5 -161.5t163 -108t210 -39q150 0 290 63.5t249.5 171.5t175 246t65.5 290q0 111 -37 203.5t-104.5 162.5t-161.5 109t-211 39q-152 0 -292 -64.5t-248.5 -172t-174 -248t-65.5 -290.5zM463 627q0 98 44 189t115.5 163t164 115t190.5 43 q106 0 182 -45t115 -111l-70 -55q-29 43 -86 84t-147 41q-80 0 -154 -35t-131 -93.5t-92 -133t-35 -154.5q0 -57 19.5 -105.5t55.5 -84t84 -55t107 -19.5q78 0 153 34.5t128 90.5l65 -60q-78 -74 -167 -114.5t-191 -40.5q-80 0 -144.5 26.5t-110.5 73.5t-70.5 109.5 t-24.5 136.5z" />
<glyph unicode="&#xaa;" horiz-adv-x="765" d="M180 934q0 86 31 180t84 162q53 70 130 109.5t177 39.5q68 0 126 -16t91 -39l-135 -647q-39 -23 -98.5 -38t-136.5 -15q-133 0 -201 71.5t-68 192.5zM315 930q0 -78 34 -123t112 -45q68 0 104 20l111 539q-12 6 -33.5 11t-54.5 5q-59 0 -108.5 -30.5t-86.5 -87.5 q-37 -59 -57.5 -139.5t-20.5 -149.5z" />
<glyph unicode="&#xab;" horiz-adv-x="1032" d="M147 686l392 444l92 -69l-344 -387l176 -373l-107 -61zM526 686l392 444l90 -69l-342 -387l176 -373l-107 -61z" />
<glyph unicode="&#xac;" d="M152 625l26 123h787l-93 -451h-131l68 328h-657z" />
<glyph unicode="&#xad;" horiz-adv-x="710" d="M143 616l31 144h465l-29 -144h-467z" />
<glyph unicode="&#xae;" horiz-adv-x="1703" d="M152 567q0 170 73.5 326t196.5 275.5t281.5 190.5t326.5 71q133 0 243.5 -45.5t190.5 -125t124 -188t44 -233.5q0 -113 -33.5 -220.5t-94 -203t-143.5 -175t-181.5 -138t-207 -90t-220.5 -31.5q-133 0 -244 45t-189.5 123.5t-122.5 186t-44 232.5zM244 573 q0 -109 36.5 -201.5t104.5 -161.5t163 -108t210 -39q150 0 290 63.5t249.5 171.5t175 246t65.5 290q0 111 -37 203.5t-104.5 162.5t-161.5 109t-211 39q-152 0 -292 -64.5t-248.5 -172t-174 -248t-65.5 -290.5zM575 289l173 827q43 20 100 31.5t113 11.5q98 0 168.5 -49 t70.5 -141q0 -63 -24.5 -113.5t-67.5 -87.5t-100.5 -57.5t-120.5 -24.5l209 -397h-109l-201 393h-32l-82 -393h-97zM766 748h84q106 0 179 56.5t73 158.5q0 68 -50.5 92t-115.5 24q-27 0 -55.5 -5t-49.5 -11z" />
<glyph unicode="&#xaf;" horiz-adv-x="434" d="M90 1290l23 103h579l-22 -103h-580z" />
<glyph unicode="&#xb0;" horiz-adv-x="878" d="M250 1061q0 72 30.5 138.5t83 117.5t121 82t142.5 31q113 0 183.5 -70t70.5 -176q0 -70 -31 -135.5t-82 -116.5t-119.5 -83t-144.5 -32q-55 0 -102.5 18.5t-81 51.5t-52 77t-18.5 97zM354 1077q0 -70 43 -117t119 -47q51 0 98.5 21.5t84 57.5t58 82t21.5 97q0 72 -44 120 t-120 48q-51 0 -98 -21.5t-83 -58t-57.5 -84t-21.5 -98.5z" />
<glyph unicode="&#xb1;" d="M78 147l22 117h787l-25 -117h-784zM201 745l24 119h328l72 350h129l-72 -350h330l-25 -119h-330l-73 -354h-129l73 354h-327z" />
<glyph unicode="&#xb2;" horiz-adv-x="765" d="M88 543l408 446q47 51 83.5 108.5t36.5 116.5q0 47 -32.5 77t-104.5 30q-47 0 -86 -10.5t-71 -26.5l-17 92q45 20 101.5 33.5t115.5 13.5q119 0 177.5 -53t58.5 -133q0 -84 -51.5 -157.5t-112.5 -139.5l-272 -287h329l-22 -110h-541z" />
<glyph unicode="&#xb3;" horiz-adv-x="765" d="M127 580l55 90q29 -18 71 -27.5t89 -9.5q49 0 89 17.5t66.5 46t41 66.5t14.5 79q0 39 -17.5 64.5t-46 41t-66.5 19.5t-79 2l16 84q49 2 94.5 16t79 36.5t54 55.5t20.5 76q0 41 -29.5 65.5t-86.5 24.5q-39 0 -80 -11t-76 -28l-19 86q47 23 103.5 36t114.5 13q88 0 147 -44 t59 -122t-50 -138t-132 -89q55 -20 94 -63t39 -115q0 -59 -21.5 -116.5t-65.5 -102.5t-109.5 -74t-153.5 -29q-59 0 -117.5 12.5t-97.5 37.5z" />
<glyph unicode="&#xb4;" horiz-adv-x="434" d="M238 1225l200 280q29 16 61.5 25.5t61.5 9.5q31 0 53.5 -9t26.5 -28l-297 -278h-106z" />
<glyph unicode="&#xb6;" d="M209 971q0 63 24.5 140t80 143.5t145.5 110.5t223 44h504l-21 -92h-69l-365 -1757h-129l365 1757h-260l-365 -1757h-129l227 1106q-115 25 -173 110.5t-58 194.5z" />
<glyph unicode="&#xb7;" horiz-adv-x="501" d="M172 680q0 27 11.5 51.5t32 45t46 32.5t53.5 12q43 0 70 -25.5t27 -66.5q0 -27 -11.5 -52.5t-32 -45t-46 -31.5t-54.5 -12q-43 0 -69.5 25.5t-26.5 66.5z" />
<glyph unicode="&#xb8;" horiz-adv-x="434" d="M-233 -401l55 69q20 -2 46 -3t58 -1q131 0 195.5 25.5t64.5 68.5q0 31 -34.5 43.5t-106.5 12.5q-29 0 -54.5 -1t-51.5 -3l53 63q25 2 51.5 4t56.5 2q123 0 173.5 -31.5t50.5 -78.5q0 -80 -91.5 -129.5t-289.5 -49.5q-53 0 -96.5 2t-79.5 7z" />
<glyph unicode="&#xb9;" horiz-adv-x="765" d="M281 1200v76q104 14 185 51t118 82h92l-178 -866h-133l143 696q-53 -16 -109.5 -25.5t-117.5 -13.5z" />
<glyph unicode="&#xba;" horiz-adv-x="765" d="M180 928q0 45 8.5 96t24.5 100.5t39.5 95.5t52.5 80q49 59 116.5 92t153.5 33q129 0 187.5 -70.5t58.5 -183.5q0 -47 -8 -99t-25.5 -102t-42 -96.5t-55.5 -82.5q-47 -55 -112.5 -88t-151.5 -33q-129 0 -187.5 71.5t-58.5 186.5zM311 911q0 -66 25.5 -106.5t97.5 -40.5 q53 0 94 24.5t70 65.5q20 31 37.5 74t30 89t19.5 93t7 84q0 63 -25.5 105t-97.5 42q-53 0 -94 -25.5t-69 -68.5q-20 -31 -38 -72.5t-30 -88t-19.5 -92.5t-7.5 -83z" />
<glyph unicode="&#xbb;" horiz-adv-x="1032" d="M96 307l344 387l-176 373l105 63l211 -448l-392 -442zM475 307l342 387l-174 373l105 63l210 -448l-391 -442z" />
<glyph unicode="&#xbc;" horiz-adv-x="1646" d="M217 1200v76q104 14 185 51t118 82h92l-178 -866h-133l143 696q-53 -16 -109 -25.5t-118 -13.5zM272 10l967 1436l104 -45l-972 -1440zM842 193l18 86l471 587h125l-123 -590h70l-17 -83h-69l-41 -193h-123l41 193h-352zM958 276h250l74 347q4 20 8 38.5t8 34.5 q4 18 9 33h-4q-10 -14 -23 -33q-10 -16 -23.5 -35.5t-29.5 -39.5z" />
<glyph unicode="&#xbd;" horiz-adv-x="1646" d="M225 1200v76q104 14 185.5 51t117.5 82h93l-179 -866h-133l144 696q-53 -16 -109.5 -25.5t-118.5 -13.5zM236 10l970 1436l101 -45l-971 -1440zM815 0l406 446q47 51 84.5 108.5t37.5 117.5q0 47 -32.5 76.5t-104.5 29.5q-47 0 -85 -11t-68 -26l-17 93q43 20 97.5 33.5 t113.5 13.5q119 0 177.5 -53.5t58.5 -133.5q0 -84 -51.5 -157.5t-112.5 -139.5l-270 -286h327l-22 -111h-539z" />
<glyph unicode="&#xbe;" horiz-adv-x="1646" d="M127 580l55 90q29 -18 71 -27.5t89 -9.5q49 0 89 17.5t66.5 46t41 66.5t14.5 79q0 39 -17.5 64.5t-46 41t-66.5 19.5t-79 2l16 84q49 2 94.5 16t79 36.5t54 55.5t20.5 76q0 41 -29.5 65.5t-86.5 24.5q-39 0 -80 -11t-76 -28l-19 86q47 23 103.5 36t114.5 13q88 0 147 -44 t59 -122t-50 -138t-132 -89q55 -20 94 -63t39 -115q0 -59 -21.5 -116.5t-65.5 -102.5t-109.5 -74t-153.5 -29q-59 0 -117.5 12.5t-97.5 37.5zM375 10l971 1436l102 -45l-973 -1440zM883 193l16 86l471 587h125l-123 -590h70l-17 -83h-69l-39 -193h-125l41 193h-350zM999 276 h248l74 347q4 20 8 38.5t8 34.5q4 18 9 33h-5q-10 -14 -20 -33q-10 -16 -23.5 -35.5t-29.5 -39.5z" />
<glyph unicode="&#xbf;" horiz-adv-x="821" d="M-49 -195q0 80 31.5 145.5t84 116t119 86t138.5 58.5l84 297h135l-45 -356q-61 -14 -125 -40t-116 -66t-85 -94t-33 -124q0 -72 44 -115t161 -43q66 0 126 18.5t97 37.5l33 -107q-59 -33 -141 -55.5t-172 -22.5q-160 0 -248 67.5t-88 196.5zM426 840q0 27 12.5 51 t31.5 44.5t46 33t55 12.5q43 0 70 -25.5t27 -66.5q0 -27 -12.5 -52.5t-32 -45t-46 -31.5t-55.5 -12q-43 0 -69.5 25.5t-26.5 66.5z" />
<glyph unicode="&#xc0;" horiz-adv-x="1200" d="M-66 0l768 1409h172l183 -1409h-189l-45 422h-483l-223 -422h-183zM395 535h422l-53 534q-4 37 -5 68.5t-3 54.5q-2 27 -2 47h-4q-8 -23 -19 -49q-20 -51 -55 -121zM592 1794q12 18 34.5 27.5t49.5 9.5q29 0 56.5 -9.5t45.5 -25.5l88 -280h-94z" />
<glyph unicode="&#xc1;" horiz-adv-x="1200" d="M-66 0l768 1409h172l183 -1409h-189l-45 422h-483l-223 -422h-183zM395 535h422l-53 534q-4 37 -5 68.5t-3 54.5q-2 27 -2 47h-4q-8 -23 -19 -49q-20 -51 -55 -121zM732 1516l200 280q29 16 61.5 25.5t61.5 9.5q31 0 53.5 -9t26.5 -28l-297 -278h-106z" />
<glyph unicode="&#xc2;" horiz-adv-x="1200" d="M-66 0l768 1409h172l183 -1409h-189l-45 422h-483l-223 -422h-183zM395 535h422l-53 534q-4 37 -5 68.5t-3 54.5q-2 27 -2 47h-4q-8 -23 -19 -49q-20 -51 -55 -121zM551 1559l244 204q37 31 73 31q37 0 62 -31l160 -204l-58 -48l-182 164l-248 -164z" />
<glyph unicode="&#xc3;" horiz-adv-x="1200" d="M-66 0l768 1409h172l183 -1409h-189l-45 422h-483l-223 -422h-183zM395 535h422l-53 534q-4 37 -5 68.5t-3 54.5q-2 27 -2 47h-4q-8 -23 -19 -49q-20 -51 -55 -121zM541 1614q29 51 72.5 83t109.5 32q37 0 64.5 -13.5t51 -29t48 -28.5t55.5 -13q43 0 78 24.5t55 61.5 l51 -78q-27 -49 -72.5 -80t-103.5 -31q-37 0 -64.5 12.5t-53 27.5t-52 27.5t-59.5 12.5q-47 0 -79 -25.5t-54 -62.5z" />
<glyph unicode="&#xc4;" horiz-adv-x="1200" d="M-66 0l768 1409h172l183 -1409h-189l-45 422h-483l-223 -422h-183zM395 535h422l-53 534q-4 37 -5 68.5t-3 54.5q-2 27 -2 47h-4q-8 -23 -19 -49q-20 -51 -55 -121zM571 1622q0 41 35 74t78 33q35 0 55.5 -22.5t20.5 -51.5q0 -41 -33 -73t-80 -32q-35 0 -55.5 20.5 t-20.5 51.5zM911 1622q0 41 34 74t77 33q35 0 56.5 -22.5t21.5 -51.5q0 -41 -33 -73t-80 -32q-35 0 -55.5 20.5t-20.5 51.5z" />
<glyph unicode="&#xc5;" horiz-adv-x="1200" d="M-66 0l768 1409h172l183 -1409h-189l-45 422h-483l-223 -422h-183zM395 535h422l-53 534q-4 37 -5 68.5t-3 54.5q-2 27 -2 47h-4q-8 -23 -19 -49q-20 -51 -55 -121zM675 1643q0 37 15.5 72.5t43 63.5t63.5 45t77 17q59 0 98 -39t39 -94q0 -37 -15 -72.5t-42 -63.5 t-62.5 -44t-78.5 -16q-59 0 -98.5 37.5t-39.5 93.5zM747 1653q0 -33 19.5 -55.5t54.5 -22.5q49 0 84 39t35 86q0 33 -18.5 55.5t-53.5 22.5q-25 0 -46.5 -11.5t-37.5 -28.5t-26.5 -40t-10.5 -45z" />
<glyph unicode="&#xc6;" horiz-adv-x="1523" d="M-78 0l778 1409h754l-24 -127h-541l57 -491h393l-24 -125h-354l65 -539h383l-27 -127h-520l-41 422h-493l-226 -422h-180zM387 537h428l-55 583q-4 27 -4 50.5v41.5v39h-4q-6 -16 -15 -39q-8 -18 -18 -42.5t-25 -51.5z" />
<glyph unicode="&#xc7;" horiz-adv-x="983" d="M96 -401l56 69q20 -2 45.5 -3t58.5 -1q131 0 195.5 25.5t64.5 68.5q0 31 -35 43.5t-106 12.5q-29 0 -54.5 -1t-52.5 -3l54 63q25 2 51 4t57 2q123 0 173 -31.5t50 -78.5q0 -80 -91 -129.5t-290 -49.5q-53 0 -96 2t-80 7zM127 473q0 104 20.5 215t60.5 215.5t98.5 197.5 t131.5 165q84 78 182.5 121t208.5 43q92 0 157 -24t99 -54l-71 -105q-23 16 -67 32.5t-103 16.5q-88 0 -159 -36.5t-130 -102.5q-55 -61 -98 -144t-74 -174t-46 -184.5t-15 -175.5q0 -172 62 -264t198 -92q61 0 119.5 19.5t89.5 39.5l28 -125q-43 -33 -119.5 -55t-164.5 -22 q-102 0 -179 36.5t-128.5 102t-76 156t-24.5 198.5z" />
<glyph unicode="&#xc8;" horiz-adv-x="913" d="M57 0l291 1409h653l-26 -127h-465l-100 -491h415l-24 -125h-418l-111 -539h465l-26 -127h-654zM510 1794q10 18 33.5 27.5t50.5 9.5t55.5 -9.5t46.5 -25.5l88 -280h-94z" />
<glyph unicode="&#xc9;" horiz-adv-x="913" d="M57 0l291 1409h653l-26 -127h-465l-100 -491h415l-24 -125h-418l-111 -539h465l-26 -127h-654zM605 1516l200 280q29 16 61.5 25.5t61.5 9.5q31 0 53.5 -9t26.5 -28l-297 -278h-106z" />
<glyph unicode="&#xca;" horiz-adv-x="913" d="M57 0l291 1409h653l-26 -127h-465l-100 -491h415l-24 -125h-418l-111 -539h465l-26 -127h-654zM426 1559l244 204q37 31 73 31q37 0 62 -31l160 -204l-58 -48l-182 164l-248 -164z" />
<glyph unicode="&#xcb;" horiz-adv-x="913" d="M57 0l291 1409h653l-26 -127h-465l-100 -491h415l-24 -125h-418l-111 -539h465l-26 -127h-654zM451 1622q0 41 34.5 74t77.5 33q35 0 55.5 -22.5t20.5 -51.5q0 -41 -33 -73t-80 -32q-35 0 -55 20.5t-20 51.5zM791 1622q0 41 33.5 74t76.5 33q35 0 56.5 -22.5t21.5 -51.5 q0 -41 -33 -73t-80 -32q-35 0 -55 20.5t-20 51.5z" />
<glyph unicode="&#xcc;" horiz-adv-x="528" d="M63 0l291 1409h191l-291 -1409h-191zM303 1794q12 18 34.5 27.5t49.5 9.5q29 0 56.5 -9t45.5 -26l88 -280h-94z" />
<glyph unicode="&#xcd;" horiz-adv-x="528" d="M63 0l291 1409h191l-291 -1409h-191zM363 1516l200 280q29 16 61.5 25.5t61.5 9.5q31 0 53.5 -9t26.5 -28l-297 -278h-106z" />
<glyph unicode="&#xce;" horiz-adv-x="528" d="M63 0l291 1409h191l-291 -1409h-191zM210 1559l244 205q37 31 74 30q37 0 61 -30l160 -205l-57 -47l-183 163l-247 -163z" />
<glyph unicode="&#xcf;" horiz-adv-x="528" d="M63 0l291 1409h191l-291 -1409h-191zM233 1622q0 41 35 74t78 33q35 0 55 -21.5t20 -52.5q0 -41 -32.5 -72.5t-79.5 -31.5q-35 0 -55.5 20.5t-20.5 50.5zM573 1622q0 41 34 74t77 33q35 0 56 -21.5t21 -52.5q0 -41 -32.5 -72.5t-79.5 -31.5q-35 0 -55.5 20.5t-20.5 50.5z " />
<glyph unicode="&#xd0;" horiz-adv-x="1271" d="M113 57l135 654h-123l22 102h123l113 539q78 37 169 57.5t210 20.5q117 0 205 -35t145 -99.5t86 -154.5t29 -201q0 -86 -17.5 -186.5t-50.5 -199.5t-79 -190.5t-103 -158.5q-82 -96 -208 -160.5t-312 -64.5q-104 0 -199.5 22.5t-144.5 54.5zM315 137q29 -10 70 -18t94 -8 q227 0 363 188q45 61 80.5 145t62.5 176.5t41 184.5t14 170q0 166 -73.5 250t-227.5 84q-109 0 -188 -29l-96 -467h237l-22 -102h-236z" />
<glyph unicode="&#xd1;" horiz-adv-x="1331" d="M57 0l291 1409h193l374 -989q12 -33 21.5 -59.5t15.5 -47.5q8 -23 13 -43h4q2 20 6 45q4 23 8 49.5t12 61.5l203 983h158l-291 -1409h-158l-389 1026q-12 33 -22.5 63.5t-18.5 55.5q-8 29 -16 53h-4q-4 -25 -8 -53q-4 -25 -9.5 -55.5t-11.5 -65.5l-213 -1024h-158z M604 1614q29 51 73 83t109 32q37 0 65 -13.5t51.5 -29t48 -28.5t55.5 -13q43 0 77.5 24.5t55.5 61.5l51 -78q-27 -49 -73 -80t-103 -31q-37 0 -64.5 12.5t-53.5 27.5t-52.5 27.5t-59.5 12.5q-47 0 -78.5 -25.5t-54.5 -62.5z" />
<glyph unicode="&#xd2;" horiz-adv-x="1249" d="M127 444q0 88 15.5 186.5t43 196t68.5 186.5t90 161q84 117 201 186.5t268 69.5q104 0 179 -34t122 -95.5t68.5 -145.5t21.5 -184q0 -88 -15 -188.5t-43 -199t-68 -190.5t-89 -162q-82 -117 -197.5 -184t-269.5 -67q-104 0 -179 33.5t-123 95t-70.5 147.5t-22.5 188z M309 418q0 -63 11.5 -117.5t38 -94.5t70.5 -62.5t110 -22.5q111 0 188.5 64.5t132.5 164.5q33 61 62.5 144.5t52 173.5t35 178t12.5 160q0 63 -10.5 117.5t-36 94t-68.5 62.5t-106 23q-106 0 -184 -62.5t-136 -161.5q-37 -63 -68.5 -146t-54 -173t-36 -179t-13.5 -163z M651 1794q12 18 34.5 27.5t49.5 9.5q29 0 56.5 -9t45.5 -26l88 -280h-94z" />
<glyph unicode="&#xd3;" horiz-adv-x="1249" d="M127 444q0 88 15.5 186.5t43 196t68.5 186.5t90 161q84 117 201 186.5t268 69.5q104 0 179 -34t122 -95.5t68.5 -145.5t21.5 -184q0 -88 -15 -188.5t-43 -199t-68 -190.5t-89 -162q-82 -117 -197.5 -184t-269.5 -67q-104 0 -179 33.5t-123 95t-70.5 147.5t-22.5 188z M309 418q0 -63 11.5 -117.5t38 -94.5t70.5 -62.5t110 -22.5q111 0 188.5 64.5t132.5 164.5q33 61 62.5 144.5t52 173.5t35 178t12.5 160q0 63 -10.5 117.5t-36 94t-68.5 62.5t-106 23q-106 0 -184 -62.5t-136 -161.5q-37 -63 -68.5 -146t-54 -173t-36 -179t-13.5 -163z M727 1516l200 280q29 16 61.5 25.5t61.5 9.5q31 0 53.5 -9t26.5 -28l-297 -278h-106z" />
<glyph unicode="&#xd4;" horiz-adv-x="1249" d="M127 444q0 88 15.5 186.5t43 196t68.5 186.5t90 161q84 117 201 186.5t268 69.5q104 0 179 -34t122 -95.5t68.5 -145.5t21.5 -184q0 -88 -15 -188.5t-43 -199t-68 -190.5t-89 -162q-82 -117 -197.5 -184t-269.5 -67q-104 0 -179 33.5t-123 95t-70.5 147.5t-22.5 188z M309 418q0 -63 11.5 -117.5t38 -94.5t70.5 -62.5t110 -22.5q111 0 188.5 64.5t132.5 164.5q33 61 62.5 144.5t52 173.5t35 178t12.5 160q0 63 -10.5 117.5t-36 94t-68.5 62.5t-106 23q-106 0 -184 -62.5t-136 -161.5q-37 -63 -68.5 -146t-54 -173t-36 -179t-13.5 -163z M571 1559l244 205q37 31 74 30q37 0 61 -30l160 -205l-57 -47l-183 163l-247 -163z" />
<glyph unicode="&#xd5;" horiz-adv-x="1249" d="M127 444q0 88 15.5 186.5t43 196t68.5 186.5t90 161q84 117 201 186.5t268 69.5q104 0 179 -34t122 -95.5t68.5 -145.5t21.5 -184q0 -88 -15 -188.5t-43 -199t-68 -190.5t-89 -162q-82 -117 -197.5 -184t-269.5 -67q-104 0 -179 33.5t-123 95t-70.5 147.5t-22.5 188z M309 418q0 -63 11.5 -117.5t38 -94.5t70.5 -62.5t110 -22.5q111 0 188.5 64.5t132.5 164.5q33 61 62.5 144.5t52 173.5t35 178t12.5 160q0 63 -10.5 117.5t-36 94t-68.5 62.5t-106 23q-106 0 -184 -62.5t-136 -161.5q-37 -63 -68.5 -146t-54 -173t-36 -179t-13.5 -163z M573 1614q29 53 73 84t110 31q37 0 64.5 -13.5t51 -29t48 -28.5t55.5 -13q43 0 77.5 25.5t55.5 60.5l51 -78q-27 -49 -73 -80t-103 -31q-37 0 -64.5 12.5t-53.5 28t-52.5 27.5t-59.5 12q-47 0 -78.5 -25.5t-54.5 -62.5z" />
<glyph unicode="&#xd6;" horiz-adv-x="1249" d="M127 444q0 88 15.5 186.5t43 196t68.5 186.5t90 161q84 117 201 186.5t268 69.5q104 0 179 -34t122 -95.5t68.5 -145.5t21.5 -184q0 -88 -15 -188.5t-43 -199t-68 -190.5t-89 -162q-82 -117 -197.5 -184t-269.5 -67q-104 0 -179 33.5t-123 95t-70.5 147.5t-22.5 188z M309 418q0 -63 11.5 -117.5t38 -94.5t70.5 -62.5t110 -22.5q111 0 188.5 64.5t132.5 164.5q33 61 62.5 144.5t52 173.5t35 178t12.5 160q0 63 -10.5 117.5t-36 94t-68.5 62.5t-106 23q-106 0 -184 -62.5t-136 -161.5q-37 -63 -68.5 -146t-54 -173t-36 -179t-13.5 -163z M594 1620q0 41 35 74t78 33q35 0 55 -21.5t20 -52.5q0 -41 -32.5 -72.5t-79.5 -31.5q-35 0 -55.5 20.5t-20.5 50.5zM934 1620q0 41 34 74t77 33q35 0 56 -21.5t21 -52.5q0 -41 -32.5 -72.5t-79.5 -31.5q-35 0 -55.5 20.5t-20.5 50.5z" />
<glyph unicode="&#xd7;" d="M78 217l24 113h791l-25 -113h-790zM129 465l29 131l690 231l-594 232l22 117l730 -302l-23 -108z" />
<glyph unicode="&#xd8;" horiz-adv-x="1249" d="M20 -6l160 188q-49 106 -49 262q0 88 15.5 186.5t44 196t69.5 186.5t90 161q84 117 200 186.5t267 69.5q106 0 181 -35t122 -99l148 174l51 -47l-160 -190q51 -109 51 -262q0 -88 -15 -188.5t-43 -199t-69 -190.5t-90 -162q-82 -117 -196.5 -184t-268.5 -67 q-109 0 -185.5 36.5t-123.5 102.5l-143 -170zM303 412q0 -41 6 -78l707 837q-23 66 -72 106t-135 40q-111 0 -190.5 -63.5t-139.5 -166.5q-41 -70 -73.5 -155.5t-55 -175.5t-35 -179.5t-12.5 -164.5zM328 248q23 -63 74 -101t139 -38q115 0 195.5 65.5t137.5 169.5 q37 66 67 151t52.5 174t34.5 178t12 163q0 20 -1 38.5t-3 36.5z" />
<glyph unicode="&#xd9;" horiz-adv-x="1198" d="M129 307q0 23 3 47.5t7 48.5l209 1006h189l-209 -1006q-10 -47 -11 -79q0 -96 54.5 -146.5t144.5 -50.5q57 0 110.5 19.5t97.5 54.5t75.5 86t44.5 116l207 1006h172l-207 -1008q-18 -92 -64.5 -168.5t-114 -133t-155.5 -88t-188 -31.5q-174 0 -269.5 90t-95.5 237z M657 1794q12 18 34.5 27.5t49.5 9.5q29 0 56.5 -9t45.5 -26l88 -280h-94z" />
<glyph unicode="&#xda;" horiz-adv-x="1198" d="M129 307q0 23 3 47.5t7 48.5l209 1006h189l-209 -1006q-10 -47 -11 -79q0 -96 54.5 -146.5t144.5 -50.5q57 0 110.5 19.5t97.5 54.5t75.5 86t44.5 116l207 1006h172l-207 -1008q-18 -92 -64.5 -168.5t-114 -133t-155.5 -88t-188 -31.5q-174 0 -269.5 90t-95.5 237z M707 1516l200 280q29 16 61.5 25.5t61.5 9.5q31 0 53.5 -9t26.5 -28l-297 -278h-106z" />
<glyph unicode="&#xdb;" horiz-adv-x="1198" d="M129 307q0 23 3 47.5t7 48.5l209 1006h189l-209 -1006q-10 -47 -11 -79q0 -96 54.5 -146.5t144.5 -50.5q57 0 110.5 19.5t97.5 54.5t75.5 86t44.5 116l207 1006h172l-207 -1008q-18 -92 -64.5 -168.5t-114 -133t-155.5 -88t-188 -31.5q-174 0 -269.5 90t-95.5 237z M550 1559l244 205q37 31 74 30q37 0 61 -30l160 -205l-57 -47l-183 163l-247 -163z" />
<glyph unicode="&#xdc;" horiz-adv-x="1198" d="M129 307q0 23 3 47.5t7 48.5l209 1006h189l-209 -1006q-10 -47 -11 -79q0 -96 54.5 -146.5t144.5 -50.5q57 0 110.5 19.5t97.5 54.5t75.5 86t44.5 116l207 1006h172l-207 -1008q-18 -92 -64.5 -168.5t-114 -133t-155.5 -88t-188 -31.5q-174 0 -269.5 90t-95.5 237z M578 1622q0 41 35 74t78 33q35 0 55 -21.5t20 -52.5q0 -41 -32.5 -72.5t-79.5 -31.5q-35 0 -55.5 20.5t-20.5 50.5zM918 1622q0 41 34 74t77 33q35 0 56 -21.5t21 -52.5q0 -41 -32.5 -72.5t-79.5 -31.5q-35 0 -55.5 20.5t-20.5 50.5z" />
<glyph unicode="&#xdd;" horiz-adv-x="1050" d="M231 1409h195l145 -637h4l424 637h189l-549 -784l-129 -625h-188l129 625zM646 1516l200 280q29 16 61.5 25.5t61.5 9.5q31 0 53.5 -9t26.5 -28l-297 -278h-106z" />
<glyph unicode="&#xde;" d="M57 0l291 1409h187l-52 -248q41 10 86 17.5t90 7.5q193 0 291.5 -88t98.5 -238q0 -100 -38 -198.5t-110 -169.5q-76 -76 -187.5 -118t-271.5 -42q-33 0 -66.5 3t-60.5 7l-71 -342h-187zM338 455q25 -4 53.5 -6.5t61.5 -2.5q109 0 184.5 33t128.5 90t76.5 133t23.5 152 q0 223 -250 223q-43 0 -78.5 -6t-74.5 -16z" />
<glyph unicode="&#xdf;" horiz-adv-x="1142" d="M51 0l225 1085q18 94 58.5 189.5t105 173.5t154.5 127t209 49q80 0 139 -24.5t98 -67.5t58.5 -101t19.5 -128q0 -82 -22.5 -167t-61.5 -157q-49 -6 -96 -20.5t-84 -41t-60.5 -67.5t-23.5 -96q0 -59 37 -97.5t82 -78t82 -91t37 -135.5q0 -70 -30 -136t-83 -117.5t-131 -82 t-172 -30.5q-61 0 -113.5 14t-81.5 35l60 110q16 -10 47 -19t84 -9q51 0 96 16.5t79 47t53.5 73.5t19.5 94q0 66 -36 106t-78 77.5t-78 85t-36 124.5q0 61 23.5 110.5t63.5 86.5t91.5 62.5t106.5 41.5q31 59 46 136t15 143q0 84 -34.5 135t-126.5 51q-68 0 -123.5 -32.5 t-97.5 -89t-71.5 -131t-47.5 -158.5l-228 -1096h-174z" />
<glyph unicode="&#xe0;" horiz-adv-x="1093" d="M100 375q0 66 12.5 137.5t36 140t55.5 133t72 115.5q82 104 197 163.5t264 59.5q104 0 190.5 -24.5t129.5 -52.5l-205 -990q-53 -31 -143.5 -54t-210.5 -23q-199 0 -298.5 108.5t-99.5 286.5zM281 371q0 -125 54 -199t183 -74q53 0 98.5 9.5t73.5 25.5l176 852 q-18 10 -55 20.5t-92 10.5q-98 0 -177 -49t-136 -142q-29 -47 -52.5 -103t-40 -115.5t-24.5 -120t-8 -115.5zM569 1503q12 18 34.5 27.5t49.5 9.5q29 0 56.5 -9t45.5 -26l88 -280h-94z" />
<glyph unicode="&#xe1;" horiz-adv-x="1093" d="M100 375q0 66 12.5 137.5t36 140t55.5 133t72 115.5q82 104 197 163.5t264 59.5q104 0 190.5 -24.5t129.5 -52.5l-205 -990q-53 -31 -143.5 -54t-210.5 -23q-199 0 -298.5 108.5t-99.5 286.5zM281 371q0 -125 54 -199t183 -74q53 0 98.5 9.5t73.5 25.5l176 852 q-18 10 -55 20.5t-92 10.5q-98 0 -177 -49t-136 -142q-29 -47 -52.5 -103t-40 -115.5t-24.5 -120t-8 -115.5zM680 1225l200 280q29 16 61.5 25.5t61.5 9.5q31 0 53.5 -9t26.5 -28l-297 -278h-106z" />
<glyph unicode="&#xe2;" horiz-adv-x="1093" d="M100 375q0 66 12.5 137.5t36 140t55.5 133t72 115.5q82 104 197 163.5t264 59.5q104 0 190.5 -24.5t129.5 -52.5l-205 -990q-53 -31 -143.5 -54t-210.5 -23q-199 0 -298.5 108.5t-99.5 286.5zM281 371q0 -125 54 -199t183 -74q53 0 98.5 9.5t73.5 25.5l176 852 q-18 10 -55 20.5t-92 10.5q-98 0 -177 -49t-136 -142q-29 -47 -52.5 -103t-40 -115.5t-24.5 -120t-8 -115.5zM485 1268l244 205q37 31 74 30q37 0 61 -30l160 -205l-57 -47l-183 163l-247 -163z" />
<glyph unicode="&#xe3;" horiz-adv-x="1093" d="M100 375q0 66 12.5 137.5t36 140t55.5 133t72 115.5q82 104 197 163.5t264 59.5q104 0 190.5 -24.5t129.5 -52.5l-205 -990q-53 -31 -143.5 -54t-210.5 -23q-199 0 -298.5 108.5t-99.5 286.5zM281 371q0 -125 54 -199t183 -74q53 0 98.5 9.5t73.5 25.5l176 852 q-18 10 -55 20.5t-92 10.5q-98 0 -177 -49t-136 -142q-29 -47 -52.5 -103t-40 -115.5t-24.5 -120t-8 -115.5zM467 1323q29 53 73 84t110 31q37 0 64.5 -13.5t51 -29t48 -28.5t55.5 -13q43 0 77.5 25.5t55.5 60.5l51 -78q-27 -49 -73 -80t-103 -31q-37 0 -64.5 12.5t-53.5 28 t-52.5 27.5t-59.5 12q-47 0 -78.5 -25.5t-54.5 -62.5z" />
<glyph unicode="&#xe4;" horiz-adv-x="1093" d="M100 375q0 66 12.5 137.5t36 140t55.5 133t72 115.5q82 104 197 163.5t264 59.5q104 0 190.5 -24.5t129.5 -52.5l-205 -990q-53 -31 -143.5 -54t-210.5 -23q-199 0 -298.5 108.5t-99.5 286.5zM281 371q0 -125 54 -199t183 -74q53 0 98.5 9.5t73.5 25.5l176 852 q-18 10 -55 20.5t-92 10.5q-98 0 -177 -49t-136 -142q-29 -47 -52.5 -103t-40 -115.5t-24.5 -120t-8 -115.5zM520 1333q0 41 35 74t78 33q35 0 55 -21.5t20 -52.5q0 -41 -32.5 -72.5t-79.5 -31.5q-35 0 -55.5 20.5t-20.5 50.5zM860 1333q0 41 34 74t77 33q35 0 56 -21.5 t21 -52.5q0 -41 -32.5 -72.5t-79.5 -31.5q-35 0 -55.5 20.5t-20.5 50.5z" />
<glyph unicode="&#xe5;" horiz-adv-x="1093" d="M100 375q0 66 12.5 137.5t36 140t55.5 133t72 115.5q82 104 197 163.5t264 59.5q104 0 190.5 -24.5t129.5 -52.5l-205 -990q-53 -31 -143.5 -54t-210.5 -23q-199 0 -298.5 108.5t-99.5 286.5zM281 371q0 -125 54 -199t183 -74q53 0 98.5 9.5t73.5 25.5l176 852 q-18 10 -55 20.5t-92 10.5q-98 0 -177 -49t-136 -142q-29 -47 -52.5 -103t-40 -115.5t-24.5 -120t-8 -115.5zM618 1354q0 37 15.5 72.5t43 63.5t63.5 45t77 17q59 0 98 -39t39 -94q0 -37 -15 -72.5t-42 -63.5t-62.5 -44t-78.5 -16q-59 0 -98.5 37.5t-39.5 93.5zM690 1364 q0 -33 19.5 -55.5t54.5 -22.5q49 0 84 39t35 86q0 33 -18.5 55.5t-53.5 22.5q-25 0 -46.5 -11.5t-37.5 -28.5t-26.5 -40t-10.5 -45z" />
<glyph unicode="&#xe6;" horiz-adv-x="1658" d="M57 229q0 137 78 235.5t199 153.5q88 41 196.5 64t233.5 35q6 31 14 64.5t8 66.5q0 51 -20.5 83t-51 48t-67.5 22.5t-69 6.5q-72 0 -147 -22.5t-124 -45.5l-20 107q53 29 140 53t198 24q106 0 183 -44t97 -154q72 104 170.5 151t192.5 47q158 0 246 -85t88 -263 q0 -43 -5.5 -92t-17.5 -102l-713 -101q-16 -98 -4 -168.5t47 -116.5t88.5 -68t120.5 -22q88 0 165 20.5t124 43.5l23 -117q-51 -29 -141.5 -51t-201.5 -22q-121 0 -204.5 52t-122.5 150q-66 -100 -153 -151t-228 -51q-150 0 -236 65.5t-86 183.5zM221 246q0 -84 51.5 -122 t135.5 -38q90 0 168.5 55.5t101.5 157.5l65 322q-102 -12 -186 -32t-149 -52q-86 -43 -136.5 -118t-50.5 -173zM879 582l542 80q8 41 12.5 74.5t4.5 64.5q0 109 -49.5 158t-143.5 49q-59 0 -114.5 -25t-103.5 -77t-87 -132t-61 -192z" />
<glyph unicode="&#xe7;" horiz-adv-x="860" d="M-2 -401l55 69q20 -2 46 -3t59 -1q131 0 195.5 25.5t64.5 68.5q0 31 -35 43.5t-107 12.5q-29 0 -54 -1t-52 -3l53 63q25 2 51.5 4t57.5 2q123 0 173 -31.5t50 -78.5q0 -80 -91 -129.5t-290 -49.5q-53 0 -96 2t-80 7zM104 389q0 61 10.5 129t30 133.5t47 127t62.5 112.5 q78 117 181.5 175t221.5 58q86 0 150.5 -25.5t89.5 -51.5l-68 -97q-18 14 -57 31.5t-92 17.5q-92 0 -160.5 -46t-120.5 -132q-27 -43 -47 -97t-35.5 -112.5t-23.5 -118t-8 -110.5q0 -125 49 -196.5t147 -71.5q53 0 103.5 18.5t79.5 40.5l24 -117q-37 -31 -105.5 -54 t-150.5 -23q-76 0 -136 29.5t-103 82.5t-66 129t-23 168z" />
<glyph unicode="&#xe8;" horiz-adv-x="1073" d="M100 375q0 61 10.5 128.5t31 134.5t47 129t61.5 114q80 121 190.5 182t237.5 61q158 0 247 -88t89 -266q0 -43 -5 -89t-18 -99l-715 -101q-10 -72 -3.5 -139.5t34 -119.5t81.5 -82.5t144 -30.5q92 0 166 22.5t121 44.5l23 -119q-57 -31 -146.5 -54t-195.5 -23 q-180 0 -290 96t-110 299zM289 580l547 82q8 39 12 71.5t4 61.5q0 113 -50 164t-143 51q-82 0 -156.5 -48.5t-131.5 -146.5q-27 -47 -47.5 -105.5t-34.5 -129.5zM514 1503q12 18 34.5 27.5t49.5 9.5q29 0 56.5 -9t45.5 -26l88 -280h-94z" />
<glyph unicode="&#xe9;" horiz-adv-x="1073" d="M100 375q0 61 10.5 128.5t31 134.5t47 129t61.5 114q80 121 190.5 182t237.5 61q158 0 247 -88t89 -266q0 -43 -5 -89t-18 -99l-715 -101q-10 -72 -3.5 -139.5t34 -119.5t81.5 -82.5t144 -30.5q92 0 166 22.5t121 44.5l23 -119q-57 -31 -146.5 -54t-195.5 -23 q-180 0 -290 96t-110 299zM289 580l547 82q8 39 12 71.5t4 61.5q0 113 -50 164t-143 51q-82 0 -156.5 -48.5t-131.5 -146.5q-27 -47 -47.5 -105.5t-34.5 -129.5zM621 1225l200 280q29 16 61.5 25.5t61.5 9.5q31 0 53.5 -9t26.5 -28l-297 -278h-106z" />
<glyph unicode="&#xea;" horiz-adv-x="1073" d="M100 375q0 61 10.5 128.5t31 134.5t47 129t61.5 114q80 121 190.5 182t237.5 61q158 0 247 -88t89 -266q0 -43 -5 -89t-18 -99l-715 -101q-10 -72 -3.5 -139.5t34 -119.5t81.5 -82.5t144 -30.5q92 0 166 22.5t121 44.5l23 -119q-57 -31 -146.5 -54t-195.5 -23 q-180 0 -290 96t-110 299zM289 580l547 82q8 39 12 71.5t4 61.5q0 113 -50 164t-143 51q-82 0 -156.5 -48.5t-131.5 -146.5q-27 -47 -47.5 -105.5t-34.5 -129.5zM438 1268l244 205q37 31 74 30q37 0 61 -30l160 -205l-57 -47l-183 163l-247 -163z" />
<glyph unicode="&#xeb;" horiz-adv-x="1073" d="M100 375q0 61 10.5 128.5t31 134.5t47 129t61.5 114q80 121 190.5 182t237.5 61q158 0 247 -88t89 -266q0 -43 -5 -89t-18 -99l-715 -101q-10 -72 -3.5 -139.5t34 -119.5t81.5 -82.5t144 -30.5q92 0 166 22.5t121 44.5l23 -119q-57 -31 -146.5 -54t-195.5 -23 q-180 0 -290 96t-110 299zM289 580l547 82q8 39 12 71.5t4 61.5q0 113 -50 164t-143 51q-82 0 -156.5 -48.5t-131.5 -146.5q-27 -47 -47.5 -105.5t-34.5 -129.5zM469 1333q0 41 35 74t78 33q35 0 55 -21.5t20 -52.5q0 -41 -32.5 -72.5t-79.5 -31.5q-35 0 -55.5 20.5 t-20.5 50.5zM809 1333q0 41 34 74t77 33q35 0 56 -21.5t21 -52.5q0 -41 -32.5 -72.5t-79.5 -31.5q-35 0 -55.5 20.5t-20.5 50.5z" />
<glyph unicode="&#xec;" horiz-adv-x="485" d="M49 0l230 1104h180l-230 -1104h-180zM217 1503q12 18 34.5 27.5t49.5 9.5q29 0 56.5 -9t45.5 -26l88 -280h-94z" />
<glyph unicode="&#xed;" horiz-adv-x="485" d="M49 0l230 1104h180l-230 -1104h-180zM283 1225l200 280q29 16 61.5 25.5t61.5 9.5q31 0 53.5 -9t26.5 -28l-297 -278h-106z" />
<glyph unicode="&#xee;" horiz-adv-x="485" d="M49 0l230 1104h180l-230 -1104h-180zM127 1268l244 205q37 31 74 30q37 0 61 -30l160 -205l-57 -47l-183 163l-247 -163z" />
<glyph unicode="&#xef;" horiz-adv-x="485" d="M49 0l230 1104h180l-230 -1104h-180zM152 1333q0 41 35 74t78 33q35 0 55 -21.5t20 -52.5q0 -41 -32.5 -72.5t-79.5 -31.5q-35 0 -55.5 20.5t-20.5 50.5zM492 1333q0 41 34 74t77 33q35 0 56 -21.5t21 -52.5q0 -41 -32.5 -72.5t-79.5 -31.5q-35 0 -55.5 20.5t-20.5 50.5z " />
<glyph unicode="&#xf0;" horiz-adv-x="1085" d="M98 365q0 66 11.5 136t33 140t51 133.5t66.5 116.5q72 102 173.5 163.5t234.5 61.5q43 0 76.5 -6t62.5 -16q-16 90 -34.5 154.5t-45.5 131.5l-197 -57q-2 4 -7 16.5t-10 24.5t-10 23.5t-7 13.5l192 57q-14 29 -29.5 59.5t-33.5 59.5l145 45q20 -29 36.5 -59.5t31.5 -59.5 l180 53q2 -2 7 -13t11 -23.5t10.5 -23.5t6.5 -15l-176 -54q59 -141 94 -299.5t35 -318.5q0 -74 -9.5 -154t-28 -159.5t-47 -154.5t-67.5 -136q-68 -111 -169 -170.5t-243 -59.5q-162 0 -253 103.5t-91 286.5zM276 356q0 -117 46.5 -185.5t150.5 -68.5q86 0 145.5 50.5 t100.5 132.5q29 57 49 126.5t34.5 141.5t20.5 143.5t6 137.5q0 90 -12 155q-29 10 -60.5 16.5t-80.5 6.5q-92 0 -159.5 -52.5t-119.5 -140.5q-27 -47 -48 -104.5t-37.5 -118.5t-26 -123.5t-9.5 -116.5z" />
<glyph unicode="&#xf1;" horiz-adv-x="1093" d="M41 0l217 1047q78 35 181.5 56t226.5 21q94 0 159.5 -20.5t107.5 -55t60.5 -82t18.5 -100.5q0 -20 -2 -40.5t-6 -41.5l-164 -784h-181l166 795q6 33 6 63q0 61 -43 105.5t-151 44.5q-59 0 -112.5 -10.5t-100.5 -26.5l-203 -971h-180zM415 1323q29 53 73 84t110 31 q37 0 64.5 -13.5t51 -29t48 -28.5t55.5 -13q43 0 77.5 25.5t55.5 60.5l51 -78q-27 -49 -73 -80t-103 -31q-37 0 -64.5 12.5t-53.5 28t-52.5 27.5t-59.5 12q-47 0 -78.5 -25.5t-54.5 -62.5z" />
<glyph unicode="&#xf2;" horiz-adv-x="1083" d="M98 352q0 63 10.5 134t30 140.5t46 135t59.5 119.5q72 115 176 179t246 64q176 0 258 -102t82 -268q0 -63 -10.5 -134t-30 -140.5t-46 -135t-59.5 -119.5q-72 -113 -176 -179t-246 -66q-176 0 -258 103t-82 269zM272 336q0 -49 9.5 -91t30 -73t55 -49.5t88.5 -18.5 q98 0 161.5 56.5t106.5 142.5q23 45 43 106.5t35.5 127t24 129t8.5 116.5q0 49 -9.5 90t-30 72t-55 48.5t-86.5 17.5q-96 0 -162.5 -57.5t-109.5 -145.5q-23 -47 -43.5 -106.5t-34.5 -124t-22.5 -127t-8.5 -113.5zM498 1503q12 18 34.5 27.5t49.5 9.5q29 0 56.5 -9t45.5 -26 l88 -280h-94z" />
<glyph unicode="&#xf3;" horiz-adv-x="1083" d="M98 352q0 63 10.5 134t30 140.5t46 135t59.5 119.5q72 115 176 179t246 64q176 0 258 -102t82 -268q0 -63 -10.5 -134t-30 -140.5t-46 -135t-59.5 -119.5q-72 -113 -176 -179t-246 -66q-176 0 -258 103t-82 269zM272 336q0 -49 9.5 -91t30 -73t55 -49.5t88.5 -18.5 q98 0 161.5 56.5t106.5 142.5q23 45 43 106.5t35.5 127t24 129t8.5 116.5q0 49 -9.5 90t-30 72t-55 48.5t-86.5 17.5q-96 0 -162.5 -57.5t-109.5 -145.5q-23 -47 -43.5 -106.5t-34.5 -124t-22.5 -127t-8.5 -113.5zM605 1225l200 280q29 16 61.5 25.5t61.5 9.5q31 0 53.5 -9 t26.5 -28l-297 -278h-106z" />
<glyph unicode="&#xf4;" horiz-adv-x="1083" d="M98 352q0 63 10.5 134t30 140.5t46 135t59.5 119.5q72 115 176 179t246 64q176 0 258 -102t82 -268q0 -63 -10.5 -134t-30 -140.5t-46 -135t-59.5 -119.5q-72 -113 -176 -179t-246 -66q-176 0 -258 103t-82 269zM272 336q0 -49 9.5 -91t30 -73t55 -49.5t88.5 -18.5 q98 0 161.5 56.5t106.5 142.5q23 45 43 106.5t35.5 127t24 129t8.5 116.5q0 49 -9.5 90t-30 72t-55 48.5t-86.5 17.5q-96 0 -162.5 -57.5t-109.5 -145.5q-23 -47 -43.5 -106.5t-34.5 -124t-22.5 -127t-8.5 -113.5zM428 1268l244 205q37 31 74 30q37 0 61 -30l160 -205 l-57 -47l-183 163l-247 -163z" />
<glyph unicode="&#xf5;" horiz-adv-x="1083" d="M98 352q0 63 10.5 134t30 140.5t46 135t59.5 119.5q72 115 176 179t246 64q176 0 258 -102t82 -268q0 -63 -10.5 -134t-30 -140.5t-46 -135t-59.5 -119.5q-72 -113 -176 -179t-246 -66q-176 0 -258 103t-82 269zM272 336q0 -49 9.5 -91t30 -73t55 -49.5t88.5 -18.5 q98 0 161.5 56.5t106.5 142.5q23 45 43 106.5t35.5 127t24 129t8.5 116.5q0 49 -9.5 90t-30 72t-55 48.5t-86.5 17.5q-96 0 -162.5 -57.5t-109.5 -145.5q-23 -47 -43.5 -106.5t-34.5 -124t-22.5 -127t-8.5 -113.5zM415 1323q29 53 73 84t110 31q37 0 64.5 -13.5t51 -29 t48 -28.5t55.5 -13q43 0 77.5 25.5t55.5 60.5l51 -78q-27 -49 -73 -80t-103 -31q-37 0 -64.5 12.5t-53.5 28t-52.5 27.5t-59.5 12q-47 0 -78.5 -25.5t-54.5 -62.5z" />
<glyph unicode="&#xf6;" horiz-adv-x="1083" d="M98 352q0 63 10.5 134t30 140.5t46 135t59.5 119.5q72 115 176 179t246 64q176 0 258 -102t82 -268q0 -63 -10.5 -134t-30 -140.5t-46 -135t-59.5 -119.5q-72 -113 -176 -179t-246 -66q-176 0 -258 103t-82 269zM272 336q0 -49 9.5 -91t30 -73t55 -49.5t88.5 -18.5 q98 0 161.5 56.5t106.5 142.5q23 45 43 106.5t35.5 127t24 129t8.5 116.5q0 49 -9.5 90t-30 72t-55 48.5t-86.5 17.5q-96 0 -162.5 -57.5t-109.5 -145.5q-23 -47 -43.5 -106.5t-34.5 -124t-22.5 -127t-8.5 -113.5zM451 1333q0 41 35 74t78 33q35 0 55 -21.5t20 -52.5 q0 -41 -32.5 -72.5t-79.5 -31.5q-35 0 -55.5 20.5t-20.5 50.5zM791 1333q0 41 34 74t77 33q35 0 56 -21.5t21 -52.5q0 -41 -32.5 -72.5t-79.5 -31.5q-35 0 -55.5 20.5t-20.5 50.5z" />
<glyph unicode="&#xf7;" d="M174 629l23 106h786l-22 -106h-787zM406 334q0 47 37.5 85t88.5 38q37 0 59.5 -22.5t22.5 -57.5q0 -47 -37.5 -85t-87.5 -38q-37 0 -60 22.5t-23 57.5zM541 985q0 47 36.5 85t88.5 38q37 0 60.5 -22.5t23.5 -57.5q0 -47 -39 -85t-88 -38q-37 0 -59.5 22.5t-22.5 57.5z " />
<glyph unicode="&#xf8;" horiz-adv-x="1083" d="M27 -57l131 168q-33 47 -47.5 108.5t-14.5 132.5q0 63 10.5 134t30 140.5t47 135t60.5 119.5q72 115 175 179t245 64q147 0 233 -75l121 153l49 -37l-129 -164q66 -92 66 -247q0 -63 -10.5 -134t-30 -140.5t-46 -135t-59.5 -119.5q-72 -113 -176 -179t-246 -66 q-78 0 -137 21.5t-100 59.5l-125 -161zM260 334q0 -23 1 -44.5t5 -41.5l545 692q-23 41 -59.5 63.5t-96.5 22.5q-98 0 -167.5 -59.5t-116.5 -151.5q-25 -49 -45.5 -110.5t-35 -126t-22.5 -128t-8 -116.5zM291 176q23 -41 61.5 -63.5t98.5 -22.5q98 0 165.5 57.5t112.5 147.5 q25 47 45.5 108.5t35.5 127t24.5 131t9.5 120.5q0 23 -2 45.5t-6 42.5z" />
<glyph unicode="&#xf9;" horiz-adv-x="1073" d="M102 244q0 23 2 47t9 51l157 762h181l-160 -768q-4 -18 -6 -39t-2 -37q0 -33 9 -60.5t30.5 -48t57.5 -33t89 -12.5q123 0 203 35l198 963h181l-217 -1047q-61 -35 -164 -56t-226 -21q-180 0 -261 69.5t-81 194.5zM518 1503q12 18 34.5 27.5t49.5 9.5q29 0 56.5 -9 t45.5 -26l88 -280h-94z" />
<glyph unicode="&#xfa;" horiz-adv-x="1073" d="M102 244q0 23 2 47t9 51l157 762h181l-160 -768q-4 -18 -6 -39t-2 -37q0 -33 9 -60.5t30.5 -48t57.5 -33t89 -12.5q123 0 203 35l198 963h181l-217 -1047q-61 -35 -164 -56t-226 -21q-180 0 -261 69.5t-81 194.5zM605 1225l200 280q29 16 61.5 25.5t61.5 9.5 q31 0 53.5 -9t26.5 -28l-297 -278h-106z" />
<glyph unicode="&#xfb;" horiz-adv-x="1073" d="M102 244q0 23 2 47t9 51l157 762h181l-160 -768q-4 -18 -6 -39t-2 -37q0 -33 9 -60.5t30.5 -48t57.5 -33t89 -12.5q123 0 203 35l198 963h181l-217 -1047q-61 -35 -164 -56t-226 -21q-180 0 -261 69.5t-81 194.5zM423 1268l244 205q37 31 74 30q37 0 61 -30l160 -205 l-57 -47l-183 163l-247 -163z" />
<glyph unicode="&#xfc;" horiz-adv-x="1073" d="M102 244q0 23 2 47t9 51l157 762h181l-160 -768q-4 -18 -6 -39t-2 -37q0 -33 9 -60.5t30.5 -48t57.5 -33t89 -12.5q123 0 203 35l198 963h181l-217 -1047q-61 -35 -164 -56t-226 -21q-180 0 -261 69.5t-81 194.5zM446 1333q0 41 35 74t78 33q35 0 55 -21.5t20 -52.5 q0 -41 -32.5 -72.5t-79.5 -31.5q-35 0 -55.5 20.5t-20.5 50.5zM786 1333q0 41 34 74t77 33q35 0 56 -21.5t21 -52.5q0 -41 -32.5 -72.5t-79.5 -31.5q-35 0 -55.5 20.5t-20.5 50.5z" />
<glyph unicode="&#xfd;" horiz-adv-x="1021" d="M59 -440l273 442l-139 1102h188l63 -795q2 -29 2 -53.5v-42.5q0 -23 -2 -41h5q4 18 12 41q12 39 43 96l401 795h174l-825 -1544h-195zM582 1225l200 280q29 16 61.5 25.5t61.5 9.5q31 0 53.5 -9t26.5 -28l-297 -278h-106z" />
<glyph unicode="&#xfe;" d="M-49 -440l424 2048h178l-113 -537q45 23 100.5 36t102.5 13q178 0 273.5 -96.5t95.5 -278.5q0 -68 -12.5 -141.5t-36 -144t-57.5 -136t-75 -118.5q-86 -111 -200.5 -167t-245.5 -56q-49 0 -91 7t-73 17l-92 -446h-178zM244 113q27 -10 61.5 -16.5t69.5 -6.5 q111 0 191.5 53.5t135.5 135.5q31 45 55.5 104t42 121.5t27 127.5t9.5 120q0 121 -55.5 190.5t-192.5 69.5q-41 0 -84 -9.5t-82 -27.5z" />
<glyph unicode="&#xff;" horiz-adv-x="1021" d="M59 -440l273 442l-139 1102h188l63 -795q2 -29 2 -53.5v-42.5q0 -23 -2 -41h5q4 18 12 41q12 39 43 96l401 795h174l-825 -1544h-195zM428 1333q0 41 35 74t78 33q35 0 55 -21.5t20 -52.5q0 -41 -32.5 -72.5t-79.5 -31.5q-35 0 -55.5 20.5t-20.5 50.5zM768 1333 q0 41 34 74t77 33q35 0 56 -21.5t21 -52.5q0 -41 -32.5 -72.5t-79.5 -31.5q-35 0 -55.5 20.5t-20.5 50.5z" />
<glyph unicode="&#x152;" horiz-adv-x="1564" d="M127 469q0 90 16.5 188.5t47 194.5t74.5 183t102 157q92 111 216 174.5t281 63.5q59 0 100.5 -7.5t65.5 -13.5h623l-27 -127h-463l-102 -491h418l-25 -125h-420l-108 -537h463l-27 -129h-625q-29 -8 -75 -14t-97 -6q-109 0 -190.5 34.5t-137 98t-83 154.5t-27.5 202z M315 446q0 -68 12.5 -129t44 -108t84 -75t132.5 -28q49 0 92 4.5t68 12.5l243 1175q-51 14 -137 15q-117 0 -202 -56.5t-146 -146.5q-43 -63 -79 -145t-60.5 -171t-38 -179.5t-13.5 -168.5z" />
<glyph unicode="&#x153;" horiz-adv-x="1728" d="M98 354q0 74 13.5 156t39 163t63.5 153.5t85 127.5q70 80 160 125t205 45q117 0 186.5 -58t97.5 -169q78 119 182.5 173t206.5 54q158 0 245 -83t87 -263q0 -43 -6 -92t-16 -104l-707 -101q-12 -111 4.5 -182.5t53 -114.5t88 -60.5t110.5 -17.5q94 0 161.5 22t117.5 46 l24 -117q-53 -29 -138 -53t-200 -24q-121 0 -215 59t-123 192q-70 -123 -169 -187t-220 -64q-88 0 -151.5 27.5t-104.5 77.5t-60.5 118.5t-19.5 150.5zM270 338q0 -47 8.5 -90t28 -75t53 -51.5t86.5 -19.5q90 0 154 50.5t105 123.5q27 47 50 113t39.5 136.5t26.5 140.5 t10 125q0 45 -8 84.5t-27.5 69.5t-54 47.5t-88.5 17.5q-78 0 -135 -38t-98 -98q-35 -49 -61.5 -115.5t-47 -140t-31 -146.5t-10.5 -134zM950 582l543 77q8 41 12 75t4 65q0 217 -188 217q-119 0 -222.5 -105.5t-148.5 -328.5z" />
<glyph unicode="&#x178;" horiz-adv-x="1050" d="M231 1409h195l145 -637h4l424 637h189l-549 -784l-129 -625h-188l129 625zM498 1622q0 41 35 74t78 33q35 0 55 -21.5t20 -52.5q0 -41 -32.5 -72.5t-79.5 -31.5q-35 0 -55.5 20.5t-20.5 50.5zM838 1622q0 41 34 74t77 33q35 0 56 -21.5t21 -52.5q0 -41 -32.5 -72.5 t-79.5 -31.5q-35 0 -55.5 20.5t-20.5 50.5z" />
<glyph unicode="&#x2c6;" horiz-adv-x="434" d="M104 1268l244 205q37 31 74 30q37 0 61 -30l160 -205l-57 -47l-183 163l-247 -163z" />
<glyph unicode="&#x2dc;" horiz-adv-x="434" d="M96 1323q29 53 73 84t110 31q37 0 64.5 -13.5t51 -29t48 -28.5t55.5 -13q43 0 77.5 25.5t55.5 60.5l51 -78q-27 -49 -73 -80t-103 -31q-37 0 -64.5 12.5t-53.5 28t-52.5 27.5t-59.5 12q-47 0 -78.5 -25.5t-54.5 -62.5z" />
<glyph unicode="&#x2000;" horiz-adv-x="920" />
<glyph unicode="&#x2001;" horiz-adv-x="1841" />
<glyph unicode="&#x2002;" horiz-adv-x="920" />
<glyph unicode="&#x2003;" horiz-adv-x="1841" />
<glyph unicode="&#x2004;" horiz-adv-x="613" />
<glyph unicode="&#x2005;" horiz-adv-x="460" />
<glyph unicode="&#x2006;" horiz-adv-x="306" />
<glyph unicode="&#x2007;" horiz-adv-x="306" />
<glyph unicode="&#x2008;" horiz-adv-x="230" />
<glyph unicode="&#x2009;" horiz-adv-x="368" />
<glyph unicode="&#x200a;" horiz-adv-x="102" />
<glyph unicode="&#x2010;" horiz-adv-x="710" d="M143 616l31 144h465l-29 -144h-467z" />
<glyph unicode="&#x2011;" horiz-adv-x="710" d="M143 616l31 144h465l-29 -144h-467z" />
<glyph unicode="&#x2012;" horiz-adv-x="710" d="M143 616l31 144h465l-29 -144h-467z" />
<glyph unicode="&#x2013;" horiz-adv-x="802" d="M18 625l25 125h815l-24 -125h-816z" />
<glyph unicode="&#x2014;" horiz-adv-x="1605" d="M18 633l23 106h1620l-23 -106h-1620z" />
<glyph unicode="&#x2018;" horiz-adv-x="540" d="M223 1102l352 506h101l-266 -506q-20 -23 -50 -37t-73 -14q-35 0 -48.5 16t-15.5 35z" />
<glyph unicode="&#x2019;" horiz-adv-x="540" d="M203 1059l266 506q20 23 51 37t74 14q35 0 48 -16.5t15 -34.5l-354 -506h-100z" />
<glyph unicode="&#x201a;" horiz-adv-x="540" d="M-86 -346l266 506q20 23 51 37t74 14q35 0 47.5 -16.5t14.5 -34.5l-353 -506h-100z" />
<glyph unicode="&#x201c;" horiz-adv-x="903" d="M223 1102l352 506h101l-266 -506q-20 -23 -50 -37t-73 -14q-35 0 -48.5 16t-15.5 35zM586 1102l352 506h102l-266 -506q-20 -23 -51 -37t-74 -14q-35 0 -48 16t-15 35z" />
<glyph unicode="&#x201d;" horiz-adv-x="903" d="M203 1059l266 506q20 23 51 37t74 14q35 0 48 -16.5t15 -34.5l-354 -506h-100zM565 1059l269 506q20 23 49.5 37t72.5 14q35 0 48.5 -16.5t15.5 -34.5l-352 -506h-103z" />
<glyph unicode="&#x201e;" horiz-adv-x="903" d="M-86 -346l266 506q20 23 50 37t73 14q35 0 48.5 -16.5t15.5 -34.5l-353 -506h-100zM276 -346l267 506q20 23 51 37t74 14q35 0 47 -16.5t14 -34.5l-352 -506h-101z" />
<glyph unicode="&#x2022;" horiz-adv-x="704" d="M186 692q0 47 20.5 91t55.5 78t80 54.5t92 20.5q78 0 126 -49t48 -121q0 -49 -21.5 -93t-56 -78t-79.5 -53.5t-93 -19.5q-78 0 -125 49.5t-47 120.5z" />
<glyph unicode="&#x2026;" horiz-adv-x="1552" d="M57 86q0 27 12.5 51.5t32 45t46 32.5t55.5 12q43 0 69.5 -25.5t26.5 -66.5q0 -27 -12.5 -52.5t-31.5 -45t-46 -31.5t-55 -12q-43 0 -70 25.5t-27 66.5zM575 86q0 27 12.5 51.5t32 45t46 32.5t55.5 12q43 0 69.5 -25.5t26.5 -66.5q0 -27 -12 -52.5t-31.5 -45t-46.5 -31.5 t-55 -12q-43 0 -70 25.5t-27 66.5zM1094 86q0 27 11 51.5t31.5 45t46 32.5t54.5 12q43 0 70.5 -25.5t27.5 -66.5q0 -27 -12 -52.5t-31.5 -45t-46 -31.5t-55.5 -12q-43 0 -69.5 25.5t-26.5 66.5z" />
<glyph unicode="&#x202f;" horiz-adv-x="368" />
<glyph unicode="&#x2039;" horiz-adv-x="653" d="M147 686l392 444l92 -69l-344 -387l176 -373l-107 -61z" />
<glyph unicode="&#x203a;" horiz-adv-x="653" d="M96 307l344 387l-176 373l105 63l211 -448l-392 -442z" />
<glyph unicode="&#x205f;" horiz-adv-x="460" />
<glyph unicode="&#x2122;" horiz-adv-x="1615" d="M270 1331l15 78h499l-16 -78h-199l-129 -633h-102l131 633h-199zM688 698l240 711h141l49 -610l297 610h146l-54 -711h-100l55 621l-317 -621h-96l-62 621l-199 -621h-100z" />
<glyph unicode="&#xe000;" horiz-adv-x="1105" d="M0 0v1106h1106v-1106h-1106z" />
</font>
</defs>
</svg>
